<?xml version="1.0" standalone="no"?>
<!DOCTYPE svg PUBLIC "-//W3C//DTD SVG 1.1//EN" "http://www.w3.org/Graphics/SVG/1.1/DTD/svg11.dtd">
<svg xmlns="http://www.w3.org/2000/svg">
<metadata>Generated by Fontastic.me</metadata>
<defs>
<font id="ispfont" horiz-adv-x="512">
<font-face font-family="ispfont" units-per-em="512" ascent="480" descent="-32"/>
<missing-glyph horiz-adv-x="512" />

<glyph glyph-name="navbar-menu" unicode="&#57344;" d="M0 135l0-33 512 0 0 33z m0 140l0-32 512 0 0 32z m0 145l0-32 512 0 0 32z"/>
<glyph glyph-name="navbar-operazioni" unicode="&#57345;" d="M336 413c86 0 156-70 156-156 0-86-70-156-156-156-86 0-156 70-156 156 0 86 69 156 156 156m0 20c-97 0-176-79-176-176 0-97 79-176 176-176 97 0 176 79 176 176 0 97-79 176-176 176z m73-249c0 5-5 11-11 11-3 0-5-1-7-4-13-9-29-15-46-15-35 0-63 22-75 52l67 0c6 0 10 5 10 11 0 6-5 10-10 10l-72 0c0 2 0 4 0 7 0 2 0 4 0 7l88 0c6 0 11 5 11 10 0 7-6 11-11 11l-83 0c12 30 41 52 75 52 17 0 34-6 47-15 2-3 4-4 7-4 5 0 11 5 11 11 0 3-1 6-3 7 0 0 0 0-1 0 0 0 0 0-2 0-16 12-35 19-59 19-46 0-84-30-96-72l-21 0c-6 0-10-6-10-11 0-6 5-10 10-10l17 0c0-2 0-4 0-7 0-2 0-4 0-7l-17 0c-6 0-10-5-10-10 0-7 5-11 10-11l21 0c12-42 50-72 96-72 23 0 42 7 58 19l1 1c4 5 5 7 5 10z m-268 118l-94 0c-5 0-10 4-10 10 0 5 4 11 10 11l94 0c5 0 11-5 11-11 0-6-6-10-11-10z m0-117l-94 0c-5 0-10 4-10 11 0 5 4 10 10 10l94 0c5 0 11-4 11-10 0-7-6-11-11-11z m-16 57l-115 0c-5 0-10 4-10 10 0 6 4 10 10 10l115 0c5 0 10-4 10-10 0-6-5-10-10-10z"/>
<glyph glyph-name="navbar-search" unicode="&#57346;" d="M373 328c0 94-71 184-189 184-108 0-184-76-184-184 0-99 66-189 184-189 48 0 93 17 128 47l181-186c10 0 19 9 19 19l-186 181c29 32 47 75 47 128z m-38 0c0-99-80-151-151-151-99 0-146 80-146 151 0 85 61 146 146 146 99 0 151-75 151-146z"/>
<glyph glyph-name="navbar-gestore-01" unicode="&#57347;" d="M285 416c6-3 8-9 14-11 5-2 13-2 20-8 12-9 16-33 16-45 0-23-10-51-10-59 0-11 8-10 8-19 0-1-2-9-4-14-2-5-13-6-14-15-2-11-6-24-13-35-3-5-8-8-10-14-1-5-1-16-1-18 0-2 0-21 2-32 6-20 36-35 52-41 17-6 37-14 56-25-59-41-93-52-145-52-50 0-97 13-146 51 37 24 106 31 111 77l0 40c-14 15-23 33-25 49 0 4-8 9-10 11-4 3-7 14-7 18 0 8 7 10 8 20l-8 41 0 28c6 50 43 58 76 58 12 0 14 3 30-5z m202-159c0-1-3-30-5-45-2-13-7-26-12-40-4-10-8-20-14-29-8-12-29-45-35-45-1 0-7 5-10 7-11 6-24 12-34 16-20 9-59 18-59 40l0 26c7 9 13 20 16 29 3 5 3 13 6 17 3 6 9 8 11 13 3 3 9 22 9 28 0 15-7 17-7 23 0 2 7 26 8 39l0 31c-1 5-2 12-4 18-3 10-11 26-25 36-5 2-10 6-15 7-2 1-7 1-9 2-5 3-10 9-16 12-12 6-26 6-37 6-63 0-103-33-103-99 0-2 2-26 4-40 1-3 4-10 4-13 0-2-5-5-6-9-2-3-2-10-2-13 0-9 3-18 7-27 2-6 10-8 12-14 4-7 6-17 9-25 3-6 9-13 13-21 2-4 1-14 1-16 0-2 0-11-1-17 0-2-2-4-4-6-4-5-13-10-19-13-11-5-25-10-36-15-11-3-23-9-33-15-4-2-9-7-10-7-3 0-6 5-9 7-19 23-32 45-41 67-11 30-16 56-16 85 0 128 105 230 231 230 126 0 231-102 231-230z m25 0c0 139-114 255-256 255-114 0-240-79-256-236l0-38c0-18 10-53 14-68 45-121 156-170 245-170 21 0 43 4 64 11 132 43 189 149 189 246z"/>
<glyph glyph-name="navbar-gestore-02" unicode="&#57348;" d="M277 422c5-2 10-7 15-8 6-1 14 0 20-2 41-13 39-64 43-93l1-84c2-14 1-30 9-45-14-7-29-10-44-12-7-1-15 0-22-5-7-4-7-8-7-13 0-53 83-60 104-78 1-1 4-2 6-3-42-36-101-53-146-53-50 0-95 18-145 56 28 22 109 25 109 78 0 6-2 15-12 16-19 2-39 5-58 14 7 13 7 28 9 41l2 59c0 8 1 16 1 23 2 8 2 18 4 26 9 59 48 86 92 86 7 0 11 0 19-3z m210-165c0-2-1-21-3-32 0-6-2-14-4-22-3-15-8-29-15-44-4-7-9-17-15-26-1-2-26-36-29-36-1 0-17 11-26 15-26 13-60 19-75 39 17 3 74 10 74 39 0 6-5 7-7 14-4 9-3 18-5 27l0 84c-1 10-2 20-3 29-1 8-2 17-4 25-2 7-4 13-6 18-2 8-8 19-14 26-9 12-23 21-35 24-7 2-15 2-22 4-5 1-9 4-13 6-8 3-18 4-27 4-46 0-99-29-115-92-2-9-4-19-5-28-2-10-2-21-3-31l-1-58c-1-9-2-19-4-29 0-4-2-8-4-12-1-3-5-8-5-12 0-30 70-37 72-38-12-13-25-17-37-21-13-5-26-9-38-15-11-4-27-17-29-17-2 0-5 6-8 8-8 10-17 22-23 33-15 25-25 53-30 77-1 13-3 28-3 41 0 128 105 230 231 230 126 0 231-104 231-230z m25 0c0 141-113 255-256 255-95 0-205-52-246-184-6-18-9-37-10-55l0-33c0-9 6-39 7-45 1-6 3-13 5-19 42-123 155-176 246-176 36 0 70 7 107 24 14 6 29 13 44 25 77 63 103 139 103 208z"/>
<glyph glyph-name="navbar-gestore-03" unicode="&#57349;" d="M512 256c0 141-114 256-256 256-117 0-239-79-256-238l0-36c0-10 9-51 10-55 41-130 151-183 246-183 140 0 256 114 256 256z m-248-4c-3 0-5 2-5 5l0 12 91 0 0-12c0-3-2-5-6-5z m68-18l0-185-55 0 0 185z m-204 18c-3 0-5 2-5 5l0 12 90 0 0-12c0-3-2-5-5-5z m67-18l0-185-39 0c-5 2-10 5-15 8l0 177z m18 1c11 2 19 11 19 22l0 12 9 0 0-12c0-11 7-20 18-22l0-187-46 0z m271 52l-98 0c-1 0-3 0-4-1l-19 0c-1 1-3 1-4 1l-109 0c-2 0-3 0-4-1l-19 0c-2 1-3 1-4 1l-110 0c-1 0-2 0-4-1l-2 0c-2 1-3 1-4 1-5 0-8 3-8 7l0 16c0 2 1 3 9 7l200 93 169-78c-3 9-5 16-10 24l-155 72c-2 1-5 1-8 0l-202-94-2-1c-8-4-19-9-19-23l0-16c0-12 9-22 21-24 1-1 3-1 5-1l1 0 0-12c0-11 8-20 19-22l0-166c-59 42-97 111-97 187 0 128 104 230 230 230 116 0 213-87 228-199z m-71-198l0 145 55 0 0-67c-13-30-31-57-55-78z m-59-41l-4 0 0 187c10 2 18 11 18 22l0 12 9 0 0-12c0-11 8-20 18-22l0-162c-13-10-27-18-41-25z m-143-18l90 0c-15-3-30-4-45-4-16 0-31 1-45 4z m270 222l-80 0c-3 0-6 2-6 5l0 12 91 0 0-3 0-9c0-3-2-5-5-5z"/>
<glyph glyph-name="navbar-gestore-04" unicode="&#57350;" d="M512 256c0 142-114 256-256 256-118 0-244-83-256-245l0-22c0-1 2-26 5-38 0-6 2-12 3-17 4-10 7-22 11-33 5-11 11-22 17-33 54-87 141-120 210-123 4 0 9-1 11-1 2 0 7 1 10 1 129 4 245 113 245 255z m-50-101c-6 4-12 7-19 11-10 4-20 8-29 12-10 4-23 7-32 17-2 2-2 4-2 7l0 20c0 2 6 8 7 11 3 7 6 13 8 19 0 2 0 5 2 6 3 4 7 7 9 10 1 3 6 19 6 24 0 2-2 9-3 13 0 2-2 3-2 4 0 2 2 8 3 11 2 8 2 15 3 21 1 4 1 11 1 12 0 2-1 12-2 16-2 13-9 32-25 42-5 2-12 2-16 6-12 10-30 15-43 15-15 0-39-4-52-13-1-1-3-2-3-3-2 1-4 2-6 3-4 1-8 2-12 3l-1 2c-11 13-34 17-48 17-1 0-3 0-4 0-2 0-3 0-4 0-44 0-91-25-93-86l0-14c0-7 4-29 7-42-5-6-6-15-6-21 0 0 0-1 0-2-1-1-1-2-1-3 0-9 6-31 20-37 3-12 9-30 18-40l0-31c0-1 0-1 0-2 0 0-1-1-1-2-23-21-48-23-72-35l-2-2c-13 18-23 39-31 63-4 11-10 40-10 56l0 27c11 141 124 215 229 215 127 0 229-102 229-229 0-36-8-71-23-101z m-71-84c-3 9-8 18-13 24-4 4-7 6-9 8-4 5-11 10-17 14-15 8-32 15-46 21-10 3-20 8-29 13-3 2-9 4-11 9-2 3-4 6-6 8l0 23c12 9 20 32 23 45 12 8 17 26 17 35l0 0c1 2 1 4 1 6 0 4-2 14-6 20 5 18 8 36 8 53 0 14-2 32-11 48 2 1 4 2 7 3 4 2 20 5 28 5 9 0 9 2 21-4 4-2 7-7 12-9 5-2 15-3 21-12 5-8 7-20 7-28 0-14-8-42-8-46 0-2 0-4 1-6 1-3 5-7 5-9 0-3-2-9-4-12-4-3-9-6-9-9-1-3-2-6-2-8-2-7-5-14-8-19-2-4-6-6-7-9-2-2-2-5-2-7l0-23c0-32 22-40 56-54 9-3 25-10 38-20-15-23-34-43-57-60z m-115 260c-1-10-5-26-7-33 0-1 0-2-1-3 0-1 0-1 0-1l0 0 0-1c0-3 1-5 6-12 1-1 1-3 1-5 0-1 0-2-1-4 0-4-2-10-4-12-2-2-4-2-6-4-3-1-5-5-5-8-4-12-7-24-15-35-6-1-7-4-10-11l0-32 0-1c-1-1-1-2-1-4 0-2 1-5 2-7 2-4 4-7 7-8 5-9 14-17 22-22 19-9 39-17 59-26 6-2 12-6 17-9 4-2 7-5 10-8 3-4 9-7 15-18 1-2 3-6 4-10-34-19-73-30-114-30-57 0-124 24-171 77 11 5 21 9 30 12 11 4 56 23 56 45 0 2-1 3-1 4 1 8 1 17 1 23 0 2 0 6 0 10 0 1 0 2 0 4 0 8-9 13-13 21-2 6-6 12-7 18-1 3-1 7-2 9-2 7-5 10-11 10-5 3-5 9-6 14 0 3 0 6 1 8 1 1 1 2 1 2 2 2 4 4 5 7 0 1 1 2 1 3 0 1 0 2-1 3 0 9-7 27-7 51 0 22 3 47 35 61 12 5 25 5 37 7 7-1 15-1 22-4 5-1 8-3 10-6 1-3 3-6 7-7 10-2 26-9 31-22 2-6 4-12 4-17l0-21c0-3 0-5-1-8z"/>
<glyph glyph-name="menu-lamiasituazione" unicode="&#57351;" d="M379 440l20 0 0-53 21-20 0 94-62 0 0-31 21-21z m129-186l-245 255c-2 2-4 3-7 3-3 0-5-1-7-3l-245-255c-4-4-4-10 0-14 4-4 10-4 14 0l33 33 0-273 410 0 0 273 33-33c2-2 4-3 7-3 2 0 5 1 7 3 4 4 4 10 0 14z m-201-234l-102 0 0 195 102 0z m133 0l-112 0 0 216-144 0 0-216-112 0 0 275 184 191 184-191z"/>
<glyph glyph-name="menu-conti" unicode="&#57352;" d="M436 393l-359 0c-17 0-31-6-42-15 8 14 25 26 60 40 2 1 213 59 249 68 21 6 34 7 39 2 4-3 6-12 6-30l0-40 21 0 0 40c0 21-2 38-15 47-10 8-27 9-56 1-37-9-248-68-251-69-71-26-82-52-82-103l0-268c0-36 30-66 66-66l368 0c37 0 66 30 67 67l0 258c0 35-34 68-71 68z m49-327c0-25-20-46-45-46l-368 0c-26 0-45 21-46 45l0 239 1 0 0 26c4 19 23 42 49 42l359 0c26 0 50-24 50-48z m-38 130c0-17-13-30-29-30-17 0-30 13-30 30 0 16 13 29 30 29 16 0 29-13 29-29z"/>
<glyph glyph-name="menu-carte" unicode="&#57353;" d="M446 434l-379 0c-41 0-67-39-67-66l0-229c0-34 28-61 61-61l390 0c33 0 61 27 62 62l0 230c0 33-32 64-67 64z m-379-20l378 0c24 0 47-22 47-44l0-14-472 0 0 12c0 18 19 46 47 46z m384-315l-390 0c-22 0-41 19-41 41l0 160 472 0 0-160c0-22-19-41-41-41z"/>
<glyph glyph-name="menu-borsellinidigitali" unicode="&#57354;" d="M316 227l0 18c0 13-11 24-24 24l-35 0c4 6 7 14 8 21 0 19-15 35-35 35-15 0-27-10-32-22-5 13-18 22-33 22-20 0-35-16-35-35 0-8 2-16 7-21l-33 0c-13 0-24-11-24-24l0-18c0-5 0-9-1-11-46-48-71-98-71-146 0-65 32-70 70-70l237 0c2 0 4 0 7 0 32 0 66 5 66 70 0 48-23 97-70 145-1 1-2 6-2 12z m-86 77c8 0 14-6 15-14 0-8-6-15-15-15-8 0-14 7-14 15 0 8 6 14 14 14z m-65 0c8 0 14-6 14-14 0-8-6-15-14-15-8 0-14 7-14 15 0 8 6 14 14 14z m33-26c1-4 2-6 4-8l-8 0c1 1 3 4 4 8z m-98-51l0 18c0 2 2 4 4 4l187 0c2 0 4-2 4-4l0-18c0-2 0-3 0-4l-195 0c0 2 0 3 0 4z m221-207c-3 0-4 0-6 0l-237 0c-29 0-48 0-48 49 0 43 21 88 64 132l210 0c42-44 65-89 65-132-2-45-20-49-48-49z m-58 331c44 0 80-36 80-80 0-6 4-10 10-10 5 0 11 5 11 10 0 56-46 101-101 101-6 0-10-4-10-11 0-6 4-10 10-10z m-9 87c-6 0-10-4-10-10 0-6 4-10 10-10 86 0 156-70 156-156 0-6 4-10 10-10 6 0 10 4 10 10 0 97-79 176-176 176z m-10 74c-6 0-11-4-11-10 0-6 5-10 11-10 132 0 239-108 239-239 0-6 4-10 11-10 6 0 10 4 10 10 0 142-117 259-260 259z"/>
<glyph glyph-name="menu-gestionespese" unicode="&#57355;" d="M287 0c-124 0-226 101-226 225 0 11 1 22 2 32l21-3c-1-9-2-20-2-29 0-112 92-205 205-205 112 0 205 93 205 205 0 113-93 205-205 205-9 0-19-1-28-2l-3 21c10 1 20 2 31 2 124 0 225-102 225-226 0-124-101-225-225-225z m-51 276l-236 0 0 11c0 124 101 225 225 225l11 0z m-216 21l195 0 0 195c-104-6-189-91-195-195z"/>
<glyph glyph-name="menu-finanziamenti" unicode="&#57356;" d="M286 151l24 24c2 2 5 2 7 0 2-2 2-5 0-7l-24-25 19-19 25 24c2 3 5 3 7 0 2-2 2-5 0-7l-25-24 22-22 25 25c2 2 5 2 7 0 2-2 2-5 0-7l-25-25 26-26 49 50c2 2 5 2 7 0 2-2 2-6 0-8l-51-48 31-30 77 78-136 137 14 13 136-136c7-7 7-20 0-27l-79-79c-7-7-20-7-27 0l-135 138 13 13z m-186 342l-78-78 23-24 27 27c3 2 6 2 8 0 2-2 2-5 0-7l-27-27 19-19 26 26c2 2 5 2 7 0 3-2 3-5 0-7l-26-27 21-21 27 26c2 3 5 3 7 0 2-2 2-5 0-7l-26-26 21-22 49 49c2 2 5 2 6 0 2-2 2-5 0-7l-49-49 31-31 27 27c2 2 5 2 7 0 2-2 2-5 0-6l-27-27 5-5-14-12-156 155c-7 8-7 20 0 27l78 79c7 7 19 7 27 0l155-156-12-14z m-99-478c46 102 50 106 52 108l379 380c8 8 23 8 31 0l43-42c8-8 8-23 0-31l-380-381c-2-2-6-6-112-48-4-2-9-1-12 2-2 3-3 8-1 12z m489 429l-41 42-48-47 42-42z m-63-62l-42 42-309-309 42-42z m-327-322l-37 37c-7-14-18-39-30-65 26 11 52 21 67 28z"/>
<glyph glyph-name="menu-risparmioeprevidenza" unicode="&#57357;" d="M333 16l-154 0 0 289 155 0z m-133 21l113 0 0 248-113 0z m-45-21l-155 0 0 166 155 0z m-135 21l114 0 0 125-114 0z m492-21l-155 0 0 435 155 0z m-134 21l114 0 0 393-114 0z m-156 337c-6 0-10 4-10 10l0 90-90 0c-6 0-10 4-10 10 0 6 4 11 10 11l110 0 0-111c0-5-4-10-10-10z m-212-112c-3 0-5 1-7 3-4 4-4 10 0 15l201 201c4 4 10 4 14 0 4-4 4-10 0-14l-201-202c-2-2-4-3-7-3z"/>
<glyph glyph-name="menu-assicurazioni" unicode="&#57358;" d="M266 478l0 19c0 5-5 10-10 10-5 0-10-4-10-10l0-18c-131-5-238-96-246-213l26 0c10 24 39 40 71 40 33 0 62-16 72-40l19 0c10 20 32 35 58 39l0-252c0-14-12-25-26-25-14 0-25 11-25 24l-21 0c0-25 22-47 47-47 26 0 47 22 47 47-1 2-1 3-2 4l0 249c27-3 49-18 60-39l19 0c10 24 40 40 72 40 33 0 61-16 71-40l24 0c-8 117-115 208-246 212z m149-152c-34 0-64-15-82-37-18 21-45 35-78 36-32-1-60-15-78-36-17 22-48 37-82 37-26 0-52-10-69-25 27 90 119 158 230 158 111 0 203-66 228-156-17 14-42 23-69 23z"/>
<glyph glyph-name="menu-ilmioprofilo" unicode="&#57359;" d="M15 256c0 133 108 241 241 241 133 0 241-108 241-241 0-133-108-241-241-241-133 0-241 108-241 241z m-15 0c0-141 115-256 256-256 141 0 256 115 256 256 0 141-115 256-256 256-141 0-256-115-256-256z m371-117c-2 35-29 46-51 55-13 5-25 10-28 18-1 7-1 12-1 18l0 2c5 6 11 17 12 27 4 2 9 7 11 20 1 6-1 11-4 14 4 12 10 41-1 60-5 8-12 13-22 15-5 7-15 11-29 11-21-1-36-7-45-19-11-15-13-37-6-67-3-3-4-8-4-14 2-13 7-18 11-20 2-10 7-21 12-27l0-2c0-6 0-11 0-18-4-8-15-13-28-18-22-9-50-20-52-55l0-6 225 0z m-213 6c4 23 24 31 44 38 15 7 30 12 34 26l1 1c0 8 0 14 0 20l0 5 0 4-3 1c-2 2-9 14-10 24l0 5-5 0c-1 0-3 2-5 11 0 5 2 7 2 7l4 2-1 4c-7 27-6 47 3 60 7 9 19 14 36 14 11 0 18-2 21-7l1-2 3-1c7-1 13-4 16-10 9-14 4-40 0-54l-2-4 4-2c0 0 2-2 2-7-1-9-4-11-5-11l-5 0 0-5c-1-11-8-22-10-24l-3-1 0-9c0-6 0-12 1-20l0-1c5-14 19-19 35-26 19-7 39-15 43-38z"/>
<glyph glyph-name="menu-lemiebanche" unicode="&#57360;" d="M481 313l0 15 2 0c16 0 29 12 29 27l0 19c0 16-12 21-23 26l-228 111c-3 1-6 1-9 0l-227-109-2-1c-11-5-23-10-23-26l0-19c0-16 13-28 29-28l2 0 0-15c0-12 9-22 20-25l0-216-29 0c-12 0-22-11-22-23l0-27c0-12 10-22 22-22l468 0c12 0 22 10 21 23l0 27c0 11-9 22-22 22l-28 0 0 216c11 3 20 13 20 25z m-20 0c0-3-3-6-6-6l-90 0c-4 0-7 3-7 6l0 15 103 0z m-154-241l0 216c11 3 21 13 21 25l0 15 10 0 0-15c0-12 9-22 20-25l0-216z m-153 216c11 3 20 13 20 25l0 15 10 0 0-15c0-12 10-22 21-25l0-216-51 0z m71-1l62 0 0-215-62 0z m76 20l-90 0c-3 0-6 3-6 6l0 15 102 0 0-15c0-3-3-6-6-6z m-281 49l0 19c0 2 0 3 12 7l224 108 221-106 2-1c11-5 11-6 11-8l0-19c0-5-3-8-8-8l-453 0c-4 0-9 3-9 8z m134-28l0-15c0-3-3-6-7-6l-90 0c-3 0-6 3-6 6l0 15z m-82-41l61 0 0-215-61 0z m418-238l0-27c0 0 0-2-1-2l-467 0c0 0-2 2-2 3l0 27 2 1 0-1 467 0c0 0 1 0 1-1z m-111 23l0 215 61 0 0-215z"/>
<glyph glyph-name="menu-perme" unicode="&#57361;" d="M512 384l-120 0c32 13 55 39 55 75 0 34-21 53-56 53-44 0-65-36-84-69-15-26-28-49-51-49-23 0-36 23-51 49-19 33-39 69-84 69-36 0-56-19-58-53 0-36 25-62 56-75l-119 0 0-117 22 0 0-267 468 0 0 267 22 0z m-186 49c17 30 33 59 66 59 24 0 36-12 36-33 0-40-44-65-86-65l-43 0c9 12 17 26 27 39z m-241 26c0 21 11 33 36 33 33 0 49-29 66-59 9-14 17-27 27-39l-43 0c-42 0-86 25-86 65z m-65-171l0 76 173 0 0-76z m22-268l0 247 151 0 0-247z m171 0l0 344 86 0 0-344z m257 0l-151 0c0 25 0 143 0 247l151 0z m22 268l-173 0c0 28 0 68 0 76l173 0z"/>
<glyph glyph-name="menu-esci" unicode="&#57362;" d="M379 138c2-2 4-3 7-3 2 0 5 1 7 3l118 118-118 118c-4 4-10 4-14 0-4-4-4-10 0-15l92-93-299 0c-6 0-10-4-10-10 0-6 4-10 10-10l299 0-92-93c-4-5-4-11 0-15z m6-104c0-6-5-10-10-10l-344 0c-6 0-11 5-11 10l0 445c0 6 6 10 11 10l344 0c6 0 10-5 10-10l0-61 21-20 0 81c0 18-15 31-31 31l-344 0c-18 0-31-14-31-31l0-446c0-18 14-31 31-31l344 0c17 0 29 13 31 31l0 81-21-20z"/>
<glyph glyph-name="menuops-lamiarubrica" unicode="&#57363;" d="M461 476l-164 0c-17 0-32-8-41-20-9 12-24 20-41 20l-164 0c-28 0-51-22-51-51l0-297c0-29 23-51 51-51l164 0c17 0 31-14 31-31 0-6 4-10 10-10 6 0 10 4 10 10 0 17 14 31 31 31l164 0c28 0 51 22 51 51l0 297c0 29-23 51-51 51z m-215-389c-8 6-20 10-31 10l-164 0c-17 0-31 14-31 31l0 297c0 17 14 31 31 31l164 0c17 0 31-14 31-31z m246 41c0-17-14-31-31-31l-164 0c-11 0-23-4-31-10l0 338c0 17 14 31 31 31l164 0c17 0 31-14 31-31z"/>
<glyph glyph-name="menuops-operazioniricorrenti" unicode="&#57364;" d="M256 0c-141 0-256 115-256 256 0 69 27 132 75 181 4 4 10 4 14 0 4-4 4-10 0-14-44-45-69-105-69-167 0-130 106-236 236-236 130 0 236 106 236 236 0 126-101 230-226 236l0-82c0-7-4-11-10-11-6 0-10 4-10 11l0 102 10 0c141 0 256-115 256-256 0-141-115-256-256-256z m22 234c-13-12-32-12-44 0-12 12-106 150-106 150 0 0 138-94 151-106 11-13 11-32-1-44z"/>
<glyph glyph-name="menuops-revoche" unicode="&#57365;" d="M174 275l-10-10 78-81-78-81 10-11 78 82 78-82 10 11-78 81 78 81-10 10-78-80z m127 237l-240 0 0-512 390 0 0 362z m6-35l109-108-109 0z m123-457l-348 0 0 472 205 0 0-144 143 0z"/>
<glyph glyph-name="footer-assistenza" unicode="&#57366;" d="M459 317c-3 9-10 16-20 19-9 93-88 166-183 166-95 0-174-73-183-166-10-3-17-10-20-19-30-6-53-42-53-87 0-44 23-80 53-86 4-12 15-21 29-21 17 0 31 14 31 31l0 153c0 13-8 24-20 29 9 82 79 145 163 145 84 0 154-63 163-145-12-5-20-16-20-29l0-153c0-14 9-25 21-29-4-41-29-64-72-64l-32 0c-5 12-16 21-29 21l-51 0c-17 0-31-14-31-31 0-17 14-31 31-31l51 0c13 0 24 9 29 21l32 0c54 0 89 32 92 84 9 3 16 10 19 19 30 6 53 42 53 86 0 45-23 81-53 87z m-408-151c-17 8-31 34-31 64 0 31 14 57 31 65z m41-12c0-6-4-11-10-11-6 0-10 5-10 11l0 153c0 6 4 10 10 10 6 0 10-4 10-10z m195-113l-51 0c-6 0-11 5-11 10 0 6 5 10 11 10l51 0c5 0 10-4 10-10 0-5-5-10-10-10z m153 113c0-6-4-11-10-11-6 0-10 5-10 11l0 153c0 6 4 10 10 10 6 0 10-4 10-10z m21 12l0 129c17-8 31-34 31-65 0-30-14-56-31-64z"/>
<glyph glyph-name="footer-carta" unicode="&#57367;" d="M446 434l-379 0c-41 0-67-39-67-66l0-229c0-34 28-61 61-61l390 0c33 0 61 27 62 62l0 230c0 33-32 64-67 64z m-379-20l378 0c24 0 47-22 47-44l0-14-472 0 0 12c0 18 19 46 47 46z m384-315l-390 0c-22 0-41 19-41 41l0 160 472 0 0-160c0-22-19-41-41-41z"/>
<glyph glyph-name="servizio-ricordamidi" unicode="&#57368;" d="M133 369l-123 0c-6 0-10 4-10 10l0 123c0 6 4 10 10 10l123 0c6 0 10-4 10-10l0-123c0-6-4-10-10-10z m-113 20l103 0 0 103-103 0z m185 62l307 0 0-21-307 0z m-137-45l-44 36 14 17 28-25 39 44 15-14z m65-222l-123 0c-6 0-10 4-10 11l0 122c0 7 4 11 10 11l123 0c6 0 10-4 10-11l0-122c0-7-4-11-10-11z m-113 21l103 0 0 102-103 0z m185 61l307 0 0-20-307 0z m-137-45l-44 37 14 16 28-24 39 44 15-14z m65-221l-123 0c-6 0-10 4-10 10l0 123c0 6 4 10 10 10l123 0c6 0 10-4 10-10l0-123c0-6-4-10-10-10z m-113 20l103 0 0 103-103 0z m185 62l307 0 0-21-307 0z"/>
<glyph glyph-name="servizio-vorrei" unicode="&#57369;" d="M509 348c-2 2-5 4-8 4l-70 0c-6 0-10-4-10-10 0-6 4-10 10-10l55 0-10-31-59 0c-6 0-10-4-10-10 0-6 4-10 10-10l52 0-10-30-76 0c-6 0-10-4-10-10 0-7 4-11 10-11l69 0-11-29-98 0c-6 0-10-4-10-11 0-6 4-10 10-10l91 0-11-33-225 0c-14 0-17 8-22 26l-57 250c-4 15-13 32-38 34-3 6-9 11-16 11l-47 0c-10 0-18-8-18-18 0-11 8-19 18-19l45 0c6 0 10 2 13 5l1 0c14 0 18-4 22-18l59-248 1-3c4-16 10-41 42-41l19 0c-17-5-30-21-30-40 0-24 19-42 42-42 20 0 37 13 41 33l56 0c4-20 20-33 41-33 22 0 41 18 42 42 0 19-13 35-30 40l50 0c4 0 8 3 8 8l70 205c1 3 1 6-1 9z m-277-283c-12 0-21 9-21 21 0 12 10 22 21 22 12 0 22-10 22-22 0-12-10-21-22-21z m159 21c0-12-10-21-21-21-13 0-22 9-22 21 0 12 10 22 22 22 11 0 21-10 21-22z m-61 11l-57 0c-4 15-14 25-27 29l111 0c-14-4-24-14-27-29z m-73 146c9-6 17-12 23-17l6-5 6 5c6 5 13 11 22 17 35 23 87 58 87 116 0 37-30 68-67 68-19 0-36-7-48-19-14 12-30 19-48 19-37 0-68-31-68-68 0-58 52-93 87-116z m-19 163c16 0 30-8 41-22l8-13 8 13c8 13 23 22 39 22 25 0 47-22 47-48 0-47-45-77-78-99-6-4-12-8-17-12-5 4-12 8-18 12-32 22-78 52-78 99 0 26 22 48 48 48z"/>
<glyph glyph-name="servizio-archivio" unicode="&#57370;" d="M301 512l-240 0 0-512 390 0 0 362z m6-35l109-108-109 0z m123-457l-348 0 0 472 205 0 0-144 143 0z"/>
<glyph glyph-name="servizio-avvisi" unicode="&#57371;" d="M0 440l0-368 512 0 0 368z m492-20l0-26-202-175c-15-13-29-14-34-14-5 0-19 2-34 14l-202 175 0 26z m0-52l0-225-136 107z m-336-117l-136-107 0 224z m-136-159l0 26 151 119 38-33c19-18 39-20 47-20 8 0 28 2 47 20l38 33 151-119 0-26z"/>
<glyph glyph-name="ops-bonifico" unicode="&#57372;" d="M278 460c13 0 20 12 35 12 4 0 5 0 5-4 0-2 0-4-1-6-6-11-23-54-23-70l0-17c-1-3-3-5-5-5-15-8-34-11-48-11-15 0-42 2-52 10-4 3-6 9-8 15-9 21-27 64-27 66 0 6 9 6 12 6 1 0 15-1 17-1 53 0 31 40 57 40 21 0 13-35 38-35z m-2 16c-7 19-18 36-36 36-10 0-25-8-31-24-2-4-1-8-5-11-5-4-10-5-13-5l-30 0c-15 1-23-12-23-22 0-2 1-7 3-11 11-26 22-52 33-77 5-13 50-20 67-20 18 0 57 7 66 22 2 4 3 11 3 15-1 7 0 14 1 19 3 18 11 39 20 56 2 5 4 12 4 14 0 12-10 21-22 21-10 0-21-5-31-11-2-2-4-2-6-2z m41-376c0 5-4 9-10 9-3 0-4-1-6-3-12-8-26-14-42-14-32 0-58 20-68 48l60 0c6 0 10 5 10 10 0 5-5 9-10 9l-65 0 0 13 80 0c6 0 10 5 10 10 0 5-5 9-10 9l-75 0c10 28 37 48 68 48 16 0 31-6 43-14 1-2 3-3 6-3 5 0 9 4 9 10 0 2 0 5-2 6l-2 0c-15 11-33 18-54 18-42 0-77-28-88-67l-18 0c-6 0-10-4-10-9 0-6 5-10 10-10l15 0 0-13-15 0c-6 0-10-4-10-9 0-6 5-10 10-10l18 0c11-38 46-66 88-66 20 0 38 6 53 18l1 0c3 5 4 7 4 10z m46 193c67-43 102-103 102-160 0-89-50-108-153-116l-37-2-75 2c-51 6-135 4-150 82-1 7-3 21-3 23l0 22c1 7 2 14 3 20 2 10 5 21 10 31 4 9 9 19 14 28 8 12 20 28 33 40 9 9 19 16 28 23 2 1 36 22 43 22 1 0 13-7 20-9 12-5 28-7 42-7 18 0 36 2 54 9 4 1 9 3 12 6 4 2 8 7 10 7 6 0 43-19 47-21z m-9 23c-3 2-32 14-39 14-1 0-4 0-5-1-7-4-15-10-20-12-17-6-33-8-50-8-14 0-21-1-36 5-9 3-24 11-26 11-9 0-50-24-50-25-10-6-20-14-29-22-25-23-40-46-51-70-4-8-9-21-11-30-4-12-5-25-6-38l0-14c0-1 2-20 3-30 17-88 112-91 168-96l107 0c2 0 36 4 54 6 92 13 118 63 118 128 0 29-10 61-27 90-21 37-67 77-100 92z"/>
<glyph glyph-name="ops-c-bonifico-n" unicode="&#57373;" d="M15 256c0 133 108 241 241 241 133 0 241-108 241-241 0-133-108-241-241-241-133 0-241 108-241 241z m-15 0c0-141 115-256 256-256 141 0 256 115 256 256 0 141-115 256-256 256-141 0-256-115-256-256z m266 98c7 0 10 6 17 6 2 0 3 0 3-2 0-1 0-2-1-3-3-5-11-26-11-34l0-8c0-1-1-2-2-2-7-4-16-6-23-6-7 0-20 1-25 5-2 2-3 5-4 7-4 11-13 31-13 32 0 3 4 3 6 3 0 0 7 0 8 0 26 0 15 19 27 19 11 0 7-17 18-17z m0 8c-4 9-9 17-18 17-5 0-12-4-14-12-1-1-1-3-3-5-2-2-5-2-6-2l-15 0c-7 0-11-6-11-11 0-1 1-3 2-5 5-13 10-25 15-37 3-6 24-10 33-10 9 0 27 4 31 11 2 2 2 5 2 7 0 3 0 7 1 9 1 9 5 19 9 27 1 2 2 6 2 7 0 6-5 10-11 10-5 0-10-3-15-6-1 0-2 0-2 0z m41-88c32-21 49-50 49-77 0-43-24-52-73-56l-18-1-36 1c-24 3-65 2-72 40-1 3-1 10-1 11l0 10c0 4 0 7 1 10 1 5 3 10 5 15 2 4 4 9 7 13 3 6 9 14 16 19 4 5 8 8 13 11 1 1 17 11 20 11 1 0 7-3 10-4 6-3 14-4 20-4 9 0 18 1 26 5 2 0 4 1 6 2 2 1 4 4 5 4 3 0 21-9 22-10z m-4 11c-1 1-15 7-19 7 0 0-2 0-2-1-3-2-7-5-10-6-8-3-16-4-23-4-7 0-11 0-18 3-4 1-12 5-12 5-5 0-24-11-25-12-4-3-9-6-13-11-12-10-20-22-25-33-2-4-4-10-5-14-2-6-2-13-3-19l0-6c0-1 1-10 1-15 8-42 54-43 81-46l51 0c1 0 18 2 26 3 44 6 57 30 57 61 0 14-5 30-13 43-10 18-32 38-48 45z m-18-104c0 2-2 5-4 5-2 0-3-1-4-2-5-4-12-7-20-7-15 0-27 10-32 23l29 0c2 0 4 3 4 5 0 3-2 5-4 5l-32 0 0 6 39 0c3 0 4 2 4 4 0 3-2 5-4 5l-36 0c5 13 18 23 32 23 8 0 15-3 21-7 1-1 2-1 3-1 2 0 4 2 4 4 0 2 0 3-1 3l-1 0c-7 6-15 9-26 9-20 0-36-14-42-32l-9 0c-2 0-4-2-4-5 0-2 2-4 4-4l8 0 0-6-8 0c-2 0-4-3-4-5 0-3 2-4 4-4l9 0c6-19 22-32 42-32 10 0 19 3 26 8l0 1c2 2 2 3 2 4z"/>
<glyph glyph-name="ops-c-bonifico-s" unicode="&#57374;" d="M266 362c0 0 1 0 2 0 5 3 10 6 15 6 6 0 11-4 11-10 0-1-1-5-2-7-4-8-8-18-9-27-1-2-1-6-1-9 0-2 0-5-2-7-4-7-22-11-31-11-9 0-30 4-33 10-5 12-10 24-15 37-1 2-2 4-2 5 0 5 4 11 11 11l15 0c1 0 4 0 6 2 2 2 2 4 3 5 2 8 9 12 14 12 9 0 14-8 18-17z m37-77c16-7 38-27 48-45 8-13 13-29 13-43 0-31-13-55-57-61-8-1-25-3-26-3l-51 0c-27 3-73 4-81 46 0 5-1 14-1 15l0 6c1 6 1 13 3 19 1 4 3 10 5 14 5 11 13 23 25 33 4 5 9 8 13 11 1 1 20 12 25 12 0 0 8-4 12-5 7-3 11-3 18-3 7 0 15 1 23 4 3 1 7 4 10 6 0 1 2 1 2 1 4 0 18-6 19-7z m-303-29c0-141 115-256 256-256 141 0 256 115 256 256 0 141-115 256-256 256-141 0-256-115-256-256z m266 98c-11 0-7 17-18 17-12 0-1-19-27-19-1 0-8 0-8 0-2 0-6 0-6-3 0-1 9-21 13-32 1-2 2-5 4-7 5-4 18-5 25-5 7 0 16 2 23 6 1 0 2 1 2 2l0 8c0 8 8 29 11 34 1 1 1 2 1 3 0 2-1 2-3 2-7 0-10-6-17-6z m41-80c-1 1-19 10-22 10-1 0-3-3-5-4-2-1-4-2-6-2-8-4-17-5-26-5-6 0-14 1-20 4-3 1-9 4-10 4-3 0-19-10-20-11-5-3-9-6-13-11-7-5-13-13-16-19-3-4-5-9-7-13-2-5-4-10-5-15-1-3-1-6-1-10l0-10c0-1 0-8 1-11 7-38 48-37 72-40l36-1 18 1c49 4 73 13 73 56 0 27-17 56-49 77z m-22-93c0-1 0-2-2-4l0-1c-7-5-16-8-26-8-20 0-36 13-42 32l-9 0c-2 0-4 1-4 4 0 2 2 5 4 5l8 0 0 6-8 0c-2 0-4 2-4 4 0 3 2 5 4 5l9 0c6 18 22 32 42 32 11 0 19-3 26-9l1 0c1 0 1-1 1-3 0-2-2-4-4-4-1 0-2 0-3 1-6 4-13 7-21 7-14 0-27-10-32-23l36 0c2 0 4-2 4-5 0-2-1-4-4-4l-39 0 0-6 32 0c2 0 4-2 4-5 0-2-2-5-4-5l-29 0c5-13 17-23 32-23 8 0 15 3 20 7 1 1 2 2 4 2 2 0 4-3 4-5z"/>
<glyph glyph-name="comuni-aggiungi" unicode="&#57375;" d="M510 275l-238 0 0 239-32 0 0-239-238 0 0-31 238 0 0-238 32 0 0 238 238 0z"/>
<glyph glyph-name="comuni-chiudi" unicode="&#57376;" d="M512 482l-30 30-226-226-226 226-30-30 226-226-226-226 30-30 226 226 226-226 30 30-226 226z"/>
<glyph glyph-name="comuni-freccia-dx" unicode="&#57377;" d="M129 23c21 22 43 44 64 68 55 55 109 113 164 170-14 15-29 30-43 45-11 12-23 24-35 36-48 51-99 103-148 155 0 1-3 7-3 9 0 8 7 11 11 11 11 0 17-13 28-23 7-7 15-15 22-23 12-12 23-25 35-36 51-55 104-110 156-164 1-1 4-8 4-10 0-1-1-6-3-8-12-14-25-27-38-40-11-11-23-24-34-35-53-57-106-115-161-170-4-3-6-3-9-3-6 0-11 5-11 11 0 2 0 5 1 7z"/>
<glyph glyph-name="comuni-freccia-sx" unicode="&#57378;" d="M383 500c-21-23-43-45-64-68-55-56-109-114-164-171 14-15 29-30 43-45 11-11 23-24 35-36 48-51 99-102 148-155 0 0 3-6 3-9 0-8-7-11-11-11-11 0-17 14-28 23-7 8-15 15-22 23-12 12-23 25-35 36-51 55-104 110-156 164-1 2-4 8-4 10 0 1 1 7 3 9 12 13 25 27 38 39 11 12 23 24 34 36 53 56 106 114 161 169 4 4 6 3 9 3 6 0 11-4 11-11 0-2 0-4-1-6z"/>
<glyph glyph-name="comuni-preferiti-n" unicode="&#57379;" d="M408 12c-2 0-5 1-6 2l-146 92-146-92c-4-2-9-2-12 0-3 2-5 8-4 12l41 168-131 109c-4 3-5 7-4 11 1 4 5 8 9 8l173 12 65 160c2 4 5 6 9 6 4 0 8-2 9-6l65-160 173-12c4 0 8-4 9-8 1-4 0-8-3-11l-133-110 41-168c1-5-1-9-4-12-1 0-3-1-5-1z m-372 291l118-98c3-2 4-6 3-10l-37-150 130 82c3 2 7 2 11 0l130-82-37 150c-1 4 0 8 3 10l118 98-153 10c-5 0-8 3-10 6l-56 143-57-143c-1-4-5-6-10-6z"/>
<glyph glyph-name="comuni-preferiti-s" unicode="&#57380;" d="M408 12c-2 0-5 1-6 2l-146 92-146-92c-4-2-9-2-12 0-3 2-5 8-4 12l41 168-131 109c-4 3-5 7-4 11 1 4 5 8 9 8l173 12 65 160c2 4 5 6 9 6 4 0 8-2 9-6l65-160 173-12c4 0 8-4 9-8 1-4 0-8-3-11l-133-110 41-168c1-5-1-9-4-12-1 0-3-1-5-1z"/>
<glyph glyph-name="comuni-c-alert-n" unicode="&#57381;" d="M241 127l30 0 0 31-30 0z m0 72l30 0 0 186-30 0z m-241 57c0-141 115-256 256-256 141 0 256 115 256 256 0 141-115 256-256 256-141 0-256-115-256-256z m20 0c0 130 106 236 236 236 130 0 236-106 236-236 0-130-106-236-236-236-130 0-236 106-236 236z"/>
<glyph glyph-name="comuni-c-help-n" unicode="&#57382;" d="M273 168l-34 0c1-1 0-3 0-33 0-2 1-4 3-5l31 0c0 1-1 2 0 38z m52 154c0 39-29 62-66 62-22 0-53-10-64-39-2-6-5-17-5-19 0-4 19-6 21-7l8 0c2 27 20 37 39 37 19 0 37-10 37-34 0-32-54-72-54-102 2-21 1-22 0-23 28 0 30 1 31 1-11 43 53 76 53 124z m187-66c0 139-113 256-256 256-120 0-245-86-256-244l0-24c0-14 6-47 9-57 40-131 150-187 247-187 138 0 256 113 256 256z m-20 0c0-133-109-236-236-236-134 0-236 109-236 236 0 131 105 236 236 236 133 0 236-108 236-236z"/>
<glyph glyph-name="comuni-c-help-s" unicode="&#57383;" d="M273 168c-1-36 0-37 0-38l-31 0c-2 1-3 3-3 5 0 30 1 32 0 33z m52 154c0-48-64-81-53-124-1 0-3-1-31-1 1 1 2 2 0 23 0 30 54 70 54 102 0 24-18 34-37 34-19 0-37-10-39-37l-8 0c-2 1-21 3-21 7 0 2 3 13 5 19 11 29 42 39 64 39 37 0 66-23 66-62z m187-66c0 139-113 256-256 256-120 0-245-86-256-244l0-24c0-14 6-47 9-57 40-131 150-187 247-187 138 0 256 113 256 256z"/>
<glyph glyph-name="comuni-c-info-n" unicode="&#57384;" d="M241 385l0-30 30 0 0 30z m0-71l0-185 30 0 0 185z m271-58c0 139-113 256-256 256-120 0-245-86-256-244l0-24c0-14 6-47 9-57 40-131 150-187 247-187 138 0 256 113 256 256z m-20 0c0-133-109-236-236-236-134 0-236 109-236 236 0 131 105 236 236 236 133 0 236-108 236-236z"/>
<glyph glyph-name="comuni-c-info-s" unicode="&#57385;" d="M241 385l30 0 0-30-30 0z m0-71l30 0 0-185-30 0z m271-58c0 139-113 256-257 256-119 0-244-86-255-244l0-24c0-14 6-47 9-57 40-131 150-187 246-187 139 0 257 113 257 256z"/>
<glyph glyph-name="comuni-esito-ok" unicode="&#57386;" d="M9 256c0 137 110 247 247 247 137 0 247-110 247-247 0-137-110-247-247-247-137 0-247 110-247 247z m-9 0c0-141 115-256 256-256 141 0 256 115 256 256 0 141-115 256-256 256-141 0-256-115-256-256z m398 122c0 6-5 8-9 8-3 0-6 0-7-2-49-77-96-157-144-235-24 22-105 99-112 99-4 0-8-2-8-8 0-8 49-51 55-56 14-13 28-27 43-40 10-9 15-18 24-18 1 0 5 2 6 2 42 67 83 135 123 202 2 2 29 41 29 48z"/>
<glyph glyph-name="comuni-esito-ko" unicode="&#57387;" d="M9 256c0 137 110 247 247 247 137 0 247-110 247-247 0-137-110-247-247-247-137 0-247 110-247 247z m-9 0c0-141 115-256 256-256 141 0 256 115 256 256 0 141-115 256-256 256-141 0-256-115-256-256z m388 125c0 4-2 7-7 7-2 0-5-1-6-3-40-39-80-79-119-119l-81 81c-10 10-38 41-44 41-4 0-7-3-7-7 0-2 0-4 2-6 23-24 48-47 72-71 16-16 32-32 48-48l-47-47c-12-11-24-24-36-36-3-2-41-39-41-44 0-4 2-7 6-7 2 0 4 0 5 2 35 34 70 69 105 104 5 6 12 12 18 18 51-50 120-124 127-124 4 0 7 2 7 7 0 1-1 4-2 5-40 41-81 81-122 122 17 16 32 33 48 48 24 25 49 48 71 71 2 2 3 4 3 6z"/>
<glyph glyph-name="ops-giroconto" unicode="&#57388;" d="M505 230c-7 9-23 20-56 6-1 3-2 6-3 8-4 6-11 10-19 11-11 3-24 0-37-5-2 5-6 8-8 10-16 11-44 4-59-5-13-8-55-34-68-42-13 3-25 7-30 10-3 2-6 6-10 10-12 13-31 33-81 33-26 0-39-5-52-10l-6-2c-27-11-74-33-76-34-5-3 60-142 65-139l28 18c13 8 17 9 34 1l22-12c25-13 61-31 72-36 16-8 30-11 41-11 21 0 35 9 47 17 3 1 6 3 9 5 19 11 153 99 167 108 16 12 25 24 27 36 1 8-1 16-7 23z m-482-21c16 8 43 18 61 25 2 1 4 2 6 3 12 5 22 9 44 9 41 0 54-15 66-27 4-5 9-10 14-13 7-4 22-9 38-13 1-1 3-1 4-1 17-5 36-8 49-8 12 0 31-2 31-15 0-4 0-15-31-15l-60 0c-26 0-61 9-61 9-6 2-12-1-13-7-2-5 1-11 7-12 1-1 38-11 67-11l60 0c24 0 37 7 44 15 1 0 1 0 2 0l93 62c22 13 38 16 45 7 2-3 2-6 2-7 0-4-4-11-18-22-14-9-148-97-166-108-3-1-6-3-9-5-18-11-34-21-68-5-11 6-46 24-72 37l-22 11c-24 12-37 9-54-2l-11-6z m261-2c17 11 41 25 50 31 11 7 30 10 36 6 1-1 1-3 1-5l-51-35c-5 0-9 1-15 1-6 0-13 1-21 2z m139 28c3 0 4-1 5-2 1-1 2-3 1-8l-73-49c-1 6-5 13-13 19l43 29c0 0 0 0 0 0 15 10 29 13 37 11z m-378 128l-39 7 58-73 75 50-37 7c6 40 24 64 56 77-43 1-92-13-113-68z m399 55l12 33-77-33 33-80 13 33c39-17 62-42 71-79 7 44 0 95-52 126z m-212-92l0-33 16 0 0 49-13 0-16-16z m55 62l0-27 14 0 0 40-11 0-14-13z m20 3l-1 0 1 0z m-67-136c35 0 63 28 63 63 0 3 0 6-1 10 26 4 46 26 46 53 0 30-24 54-54 54-30 0-54-24-54-54-35 0-64-28-64-63 0-35 29-63 64-63z m0 108c25 0 45-20 45-45 0-25-20-45-45-45-25 0-45 20-45 45 0 25 20 45 45 45z m18 18c0 20 16 36 36 36 20 0 36-16 36-36 0-19-15-34-33-36-8 16-22 28-39 33 0 1 0 2 0 3z"/>
<glyph glyph-name="ops-c-giroconto-n" unicode="&#57389;" d="M15 256c0 133 108 241 241 241 133 0 241-108 241-241 0-133-108-241-241-241-133 0-241 108-241 241z m-15 0c0-141 115-256 256-256 141 0 256 115 256 256 0 141-115 256-256 256-141 0-256-115-256-256z m256 69c0 11 8 19 18 19 10 0 18-8 18-19 0-9-7-17-17-18-3 8-11 14-19 17z m-10-9c13 0 23-10 23-23 0-13-10-23-23-23-12 0-23 10-23 23 0 13 11 23 23 23z m0-55c18 0 33 14 33 32 0 2 0 3-1 5 14 2 24 13 24 27 0 16-13 28-28 28-15 0-28-12-28-28-17 0-32-14-32-32 0-18 15-32 32-32z m25 68l0-14 7 0 0 21-6 0-7-7z m-29-32l0-17 9 0 0 26-7 0-8-9z m108 47l7 17-40-17 17-41 7 17c20-9 31-21 36-40 4 22 0 48-27 64z m-203-28l-20 3 30-37 38 26-19 3c3 21 12 34 29 40-22 1-47-7-58-35z m193-65c1-1 2-1 3-2 0 0 0-1 0-4l-37-25c-1 3-3 7-7 10l22 15 0 0c7 5 15 6 19 6z m-71-15c9 6 21 13 26 16 5 3 15 5 18 3 0-1 0-2 0-3l-26-18c-2 1-4 1-7 1-3 0-7 0-11 1z m-133 1c8 4 22 9 31 13l3 1c6 3 11 5 22 5 21 0 28-7 34-14 2-2 5-5 7-6 4-3 11-5 19-7 1-1 2-1 3-1 9-2 18-3 25-3 6 0 16-2 16-8 0-2 0-8-16-8l-31 0c-13 0-31 5-31 5-3 1-6-1-7-4-1-3 1-5 4-6 1-1 19-6 34-6l31 0c12 0 19 4 22 8l1 0 48 32c11 6 19 8 23 3 1-1 1-3 1-3-1-2-2-6-10-12-7-4-75-49-84-55l-5-3c-9-5-17-10-35-2-5 3-23 12-36 19l-11 5c-13 7-19 5-28 0l-6-4z m246 11c-4 4-12 10-29 3 0 2-1 3-2 4-2 3-5 5-9 6-5 1-12 0-19-3-1 3-3 4-4 5-8 6-23 2-30-2-7-4-28-18-35-22-7 2-12 4-15 6-2 0-3 2-5 4-6 7-16 18-42 18-13 0-19-3-26-6l-3-1c-14-6-38-17-39-17-2-2 31-73 33-71l15 9c6 4 8 4 17 0l11-6c13-6 31-16 37-18 8-4 15-6 21-6 10 0 18 5 24 9l4 2c10 6 78 51 85 56 9 6 13 12 14 18 1 4 0 8-3 12z"/>
<glyph glyph-name="ops-c-giroconto-s" unicode="&#57390;" d="M248 261c-18 0-33 14-33 32 0 18 15 32 33 32 0 16 12 28 27 28 16 0 28-12 28-28 0-14-10-25-23-27 0-2 0-3 0-5 0-18-15-32-32-32z m104 83c26-16 30-42 26-64-4 19-16 31-36 40l-6-17-17 41 39 17z m-203-28c10 28 35 36 57 35-16-6-26-19-29-40l19-3-38-26-30 37z m234-68c3-4 4-8 3-12-1-6-5-12-13-18-8-5-76-50-86-56-1-1-2-2-4-2-6-4-13-9-24-9-6 0-13 2-21 6-6 2-24 12-37 18l-11 6c-8 4-11 4-17 0l-14-9c-3-2-36 69-33 71 1 0 25 11 38 17l3 1c7 3 13 6 27 6 25 0 35-11 41-18 2-2 4-4 5-4 3-2 9-4 15-6 7 4 28 18 35 22 8 4 22 8 30 2 1-1 3-2 4-5 7 3 14 4 19 3 4-1 8-3 10-6 0-1 1-2 1-4 17 7 26 1 29-3z m-383 8c0-141 115-256 256-256 141 0 256 115 256 256 0 141-115 256-256 256-141 0-256-115-256-256z m257 69c0 0 0-1 0-1 9-3 16-9 20-17 9 1 17 9 17 18 0 11-8 19-19 19-10 0-18-8-18-19z m25 6l0 0-1 0z m-10-2l-6 0 7 7 6 0 0-21-7 0z m-24-13c-13 0-23-10-23-23 0-13 10-23 23-23 12 0 23 10 23 23 0 13-11 23-23 23z m-4-19l-7 0 8 9 7 0 0-26-8 0z m97-46c-4 0-11-1-18-6-1 0-1 0-1 0l-21-15c4-3 5-7 6-10l37 25c0 3 0 4 0 4-1 1-1 1-3 2z m-71-15c4-1 8-1 11-1 3 0 5 0 8-1l26 18c0 1 0 2-1 3-3 2-12 0-18-3-5-3-17-10-26-16z m-133 1l24-51 6 4c9 5 16 7 28 0l11-5c13-7 31-16 37-19 17-8 25-3 35 2 1 1 3 2 4 3 9 6 78 51 84 55 8 6 10 10 10 12 0 0 0 2-1 3-4 5-12 3-23-3l-48-32c0 0 0 0 0 0-4-4-11-8-23-8l-31 0c-14 0-33 5-34 6-3 1-4 3-3 6 0 3 3 5 6 4 0 0 18-5 31-5l31 0c16 0 16 6 16 8 0 6-10 8-16 8-7 0-16 1-25 3-1 0-2 0-2 1-8 2-16 4-19 7-3 1-5 4-8 6-6 7-12 14-33 14-12 0-16-2-23-5-1 0-2 0-3-1-9-4-22-9-31-13z"/>
<glyph glyph-name="ops-bonificoafiscali" unicode="&#57391;" d="M221 451c-9 18-19 30-34 30-12 0-23-7-30-21-1-2-1-6-3-8-2-4-6-4-9-6l-24 0c-2 0-5 1-6 1-13-2-20-11-20-21 0-11 14-40 17-47 4-10 8-22 14-32 7-11 22-13 33-15 9-2 27-3 29-3 17 0 59 7 63 29l0 16c0 2 1 5 1 7 1 8 5 15 7 23 1 6 14 25 14 37 0 13-11 20-22 20-12 0-17-6-30-10z m-1-20c9 0 23 10 28 10l5 0 0-2c-2-3-21-48-21-61l0-18c0-1-2-1-3-2-14-6-28-10-42-10-10 0-40 3-44 10-11 21-28 66-28 67 0 4 12 2 13 2l17 0c8 1 19 4 25 14 3 5 5 11 8 16 1 3 6 5 9 5 15 0 10-31 33-31z m32-187c-20 10-32 14-48 14-32 0-63-15-80-58l-17 0c-4 0-8-6-8-10 0-3 3-11 9-11l13 0 0-5-1-2-13 0c-4 0-8-6-8-10 0-3 3-11 9-11l16 0c13-40 50-58 80-58 7 0 53 7 53 27 0 5-4 10-11 10-7 0-21-14-42-14-21 0-44 11-57 37l51 0c6 1 9 6 9 11 0 4-2 9-9 10l-56 0 0 7 70 0c6 0 9 9 9 11 0 3-4 11-10 10l-64 1c11 26 37 36 57 36 19 0 40-15 43-15 5 0 10 5 10 11 0 3-1 6-5 9z m18 75c-6 1-11 4-18 4-7 0-15-8-22-11-14-6-31-7-46-7-1 0-11 0-16 1-11 2-34 13-36 13-5 0-19-8-23-9-5-4-12-7-16-9-46-26-80-76-89-114-2-9-3-19-4-29l0-19c0-1 1-8 1-12 1-25 18-61 52-76 3-1 8-4 12-5 8-3 17-5 25-7 8-2 18-4 26-4 10-1 22-3 32-4l104 0c1 0 33 4 49 6 6 1 13 2 18 4l0-10 54 0 0 79 45 1 0-80 46 0 0 97 48 0-120 128-19-20c-2 3-4 6-6 8-27 37-66 65-97 75z m24-33c30-19 51-40 66-64l-89-94 48 0 0-66c-22-7-46-9-66-11l-38-2-65 2c-8 1-18 2-25 3-32 4-79 7-99 51-2 6-4 14-5 20 0 4-1 11-1 12l0 23c2 44 40 106 95 131 5 2 15 7 17 7 1 0 13-6 20-8 16-5 21-5 36-5 17 0 32 1 51 9 5 2 14 9 16 9 1 0 27-10 39-17z"/>
<glyph glyph-name="ops-c-bonificoafiscali-n" unicode="&#57392;" d="M0 256c0-141 115-256 256-256 141 0 256 115 256 256 0 141-115 256-256 256-141 0-256-115-256-256z m15 0c0 133 108 241 241 241 133 0 241-108 241-241 0-133-108-241-241-241-133 0-241 108-241 241z m269 29c15-9 26-20 33-32l-44-48 24 0 0-33c-11-4-24-4-34-6l-19 0-32 0c-5 1-9 2-13 2-16 2-40 3-50 26-1 3-2 7-3 10 0 2 0 5 0 6l0 12c1 22 20 53 48 66 2 1 7 3 8 3 1 0 7-3 11-4 8-2 10-2 17-2 9 0 17 0 27 5 2 0 6 4 7 4 1 0 14-5 20-9z m-12 17c-3 0-6 2-9 2-4 0-8-4-11-6-7-3-16-3-23-3-1 0-6 0-9 0-5 1-17 7-18 7-2 0-9-4-11-5-3-1-6-3-8-4-23-13-41-39-45-58-1-4-2-10-2-14l0-10c0-1 0-4 0-6 1-13 9-31 27-38 1-1 3-2 6-3 4-2 8-3 12-4 4 0 9-1 13-2 5 0 11-1 17-2l52 0c1 0 17 2 25 4 3 0 6 1 9 1l0-5 27 0 0 40 23 1 0-41 23 0 0 49 24 0-61 65-9-10c-1 2-2 3-3 4-13 18-33 33-49 38z m-9-38c-10 5-16 7-25 7-16 0-31-8-40-29l-8 0c-2 0-4-3-4-5 0-2 1-6 4-6l7 0 0-3-1 0-6 0c-2 0-4-3-4-5 0-2 1-6 4-6l8 0c7-20 26-29 40-29 4 0 27 3 27 13 0 3-2 6-5 6-4 0-11-8-22-8-10 0-22 6-28 19l26 0c2 0 4 3 4 6 0 1-1 4-4 5l-29 0 0 3 36 0c3 0 4 5 4 6 0 1-2 5-5 5l-32 0c6 13 19 19 28 19 10 0 21-8 22-8 3 0 6 3 6 5 0 2-1 3-3 5z m-16 94c4 0 12 6 14 6l2 0 0-1c-1-2-10-24-10-31l0-9c0-1-1-1-2-1-7-3-14-5-21-5-5 0-20 1-22 5-6 10-14 33-14 33 0 3 6 1 6 1l9 0c4 1 10 3 13 8 1 2 2 5 4 8 0 1 2 2 4 2 7 0 5-16 17-16z m0 11c-4 9-9 15-17 15-6 0-12-4-15-11 0-1-1-3-1-4-1-2-4-2-5-3l-12 0c-1 0-3 1-3 1-7-1-10-6-10-11 0-5 7-20 8-24 3-5 4-11 7-16 4-6 12-6 17-7 4-2 14-2 15-2 8 0 29 3 31 15l0 8c0 1 1 2 1 3 1 4 2 8 3 12 1 3 7 13 7 19 0 6-5 10-11 10-6 0-8-3-15-5z"/>
<glyph glyph-name="ops-c-bonificoafiscali-s" unicode="&#57393;" d="M272 302c16-5 36-20 49-38 1-1 2-2 3-4l9 10 61-65-24 0 0-49-23 0 0 41-23-1 0-40-27 0 0 5c-3 0-6-1-9-1-8-2-24-4-25-4l-52 0c-6 1-12 2-17 2-4 1-9 2-13 2-4 1-8 2-12 4-3 1-5 2-6 3-18 7-26 25-27 38 0 2 0 5 0 6l0 10c0 4 1 10 2 14 4 19 22 45 45 58 2 1 5 3 8 4 2 1 9 5 11 5 1 0 13-6 18-7 3 0 8 0 9 0 7 0 16 0 23 3 3 2 7 6 11 6 3 0 6-2 9-2z m-25 67c7 2 9 5 15 5 6 0 11-4 11-10 0-6-6-16-7-19-1-4-2-8-3-12 0-1-1-2-1-3l0-8c-2-12-23-15-31-15-1 0-11 0-15 2-5 1-13 1-17 7-3 5-4 11-7 16-1 4-8 19-8 24 0 5 3 10 10 11 0 0 2-1 3-1l12 0c1 1 4 1 5 3 0 1 1 3 1 4 3 7 9 11 15 11 8 0 13-6 17-15z m-247-113c0-141 115-256 256-256 141 0 256 115 256 256 0 141-115 256-256 256-141 0-256-115-256-256z m284 29c-6 4-19 9-20 9-1 0-5-4-7-4-10-5-18-5-27-5-7 0-9 0-17 2-4 1-10 4-11 4-1 0-6-2-8-3-28-13-47-44-48-66l0-12c0-1 0-4 0-6 1-3 2-7 3-10 10-23 34-24 50-26 4 0 8-1 13-2l32 0 19 0c10 2 23 2 34 6l0 33-24 0 44 48c-7 12-18 23-33 32z m-21-21c2-2 3-3 3-5 0-2-3-5-6-5-1 0-12 8-22 8-9 0-22-6-28-19l32 0c3 0 5-4 5-5 0-1-1-6-4-6l-36 0 0-3 29 0c3-1 4-4 4-5 0-3-2-6-4-6l-26 0c6-13 18-19 28-19 11 0 18 8 22 8 3 0 5-3 5-6 0-10-23-13-27-13-14 0-33 9-40 29l-8 0c-3 0-4 4-4 6 0 2 2 5 4 5l6 0 1 0 0 3-7 0c-3 0-4 4-4 6 0 2 2 5 4 5l8 0c9 21 24 29 40 29 9 0 15-2 25-7z m-16 94c-12 0-10 16-17 16-2 0-4-1-4-2-2-3-3-6-4-8-3-5-9-7-13-8l-9 0c0 0-6 2-6-1 0 0 8-23 14-33 2-4 17-5 22-5 7 0 14 2 21 5 1 0 2 0 2 1l0 9c0 7 9 29 10 31l0 1-2 0c-2 0-10-6-14-6z"/>
<glyph glyph-name="comuni-importo" unicode="&#57394;" d="M512 451c0 39-79 61-154 61-74 0-153-22-153-61 0-3 0-5 1-7-1-1-1-2-1-4l0-61c0-2 0-4 1-7-1-1-1-2-1-3l0-34c-17 2-34 3-51 3-75 0-154-22-154-62 0-2 0-4 1-6-1-1-1-2-1-4l0-61c0-2 0-5 1-7-1-1-1-2-1-3l0-62c0-2 0-4 1-6-1-2-1-3-1-4l0-62c0-39 79-61 154-61 74 0 153 22 153 61l0 45c17-3 34-4 51-4 75 0 154 22 154 62l0 61c0 2 0 3-1 4 1 2 1 4 1 7l0 61c0 1 0 3-1 4 1 2 1 4 1 6l0 62c0 1 0 2-1 3 1 3 1 5 1 7l0 61c0 2 0 3-1 4 1 2 1 4 1 7z m-225-390c0-16-52-41-133-41-82 0-134 25-134 41l0 40c29-19 82-29 134-29 51 0 104 10 133 29z m0 72c0-17-52-41-133-41-82 0-134 24-134 41l0 40c29-19 82-30 134-30 51 0 104 11 133 30z m0 72c0-17-52-41-133-41-82 0-134 24-134 41l0 40c29-20 82-30 134-30 51 0 104 10 133 30z m-133 31c-82 0-134 24-134 40 0 17 52 41 134 41 81 0 133-24 133-41 0-16-52-40-133-40z m338-72c0-17-52-41-134-41-18 0-35 1-51 3 0 1 0 1-1 1 1 2 1 4 1 6l0 44c17-2 34-3 51-3 52 0 105 10 134 30z m0 72c0-17-52-41-134-41-18 0-35 1-51 3 0 0 0 0-1 0 1 2 1 5 1 7l0 44c17-2 34-3 51-3 52 0 105 10 134 29z m0 71c0-17-52-41-134-41-17 0-35 1-51 4 0 0 0 0-1 0 1 2 1 4 1 6 0 27-36 46-82 55l0 16c29-19 82-30 133-30 52 0 105 11 134 30z m0 72c0-17-52-41-134-41-81 0-133 24-133 41l0 40c29-20 82-30 133-30 52 0 105 10 134 30z m-134 31c-81 0-133 24-133 41 0 16 52 41 133 41 82 0 134-25 134-41 0-17-52-41-134-41z"/>
<glyph glyph-name="comuni-achi" unicode="&#57395;" d="M501 13c-4 73-62 96-109 114-28 11-53 21-60 38-1 13-1 24-1 36l0 6c11 11 22 34 26 55 8 5 19 15 22 42 2 13-2 23-7 29 7 24 21 86-4 126-10 16-26 27-46 31-11 14-33 22-62 22-44-1-77-14-96-40-23-31-28-77-13-138-6-7-9-17-8-30 3-27 14-38 22-42 4-21 16-44 27-55l0-6c0-12 0-23-1-36-8-17-32-27-60-38-47-18-105-41-110-114l-1-13 482 0z m-454 11c9 48 51 64 93 81 32 13 63 25 74 53l1 3c1 15 1 28 1 40l0 11 0 8-7 3c-5 4-19 28-21 49l-1 10-10 1c-2 0-8 5-10 23-1 10 3 14 4 14l7 4-2 9c-15 56-12 99 7 124 15 20 41 30 77 31 23 0 39-6 45-15l2-5 6-1c16-2 28-9 35-21 18-30 8-85-1-112l-3-9 8-5c0 0 5-4 3-14-2-18-8-23-10-23l-10-1-1-10c-2-21-16-46-20-49l-7-3 0-19c0-12 0-25 1-40l1-3c10-28 41-40 74-53 41-17 83-33 93-81z"/>
<glyph glyph-name="comuni-lamiarubrica" unicode="&#57396;" d="M461 476l-164 0c-17 0-32-8-41-20-9 12-24 20-41 20l-164 0c-28 0-51-22-51-51l0-297c0-29 23-51 51-51l164 0c17 0 31-14 31-31 0-6 4-10 10-10 6 0 10 4 10 10 0 17 14 31 31 31l164 0c28 0 51 22 51 51l0 297c0 29-23 51-51 51z m-215-389c-8 6-20 10-31 10l-164 0c-17 0-31 14-31 31l0 297c0 17 14 31 31 31l164 0c17 0 31-14 31-31z m246 41c0-17-14-31-31-31l-164 0c-11 0-23-4-31-10l0 338c0 17 14 31 31 31l164 0c17 0 31-14 31-31z"/>
<glyph glyph-name="comuni-calendario" unicode="&#57397;" d="M88 69l336 0 0 254-336 0z m20 78l59 0 0-59-59 0z m79 0l59 0 0-59-59 0z m79 0l59 0 0-59-59 0z m79 0l59 0 0-59-59 0z m59 20l-59 0 0 58 59 0z m-79 0l-59 0 0 58 59 0z m-79 0l-59 0 0 58 59 0z m-79 0l-59 0 0 58 59 0z m-59 137l59 0 0-59-59 0z m79 0l59 0 0-59-59 0z m79 0l59 0 0-59-59 0z m79 0l59 0 0-59-59 0z m-265 146c5-21 25-36 48-36 22 0 42 15 47 36l142 0c6-21 25-36 48-36 23 0 42 15 47 36l81 0 0-68-474 0 0 68z m97 19c-4 24-24 43-49 43-25 0-46-19-49-43l-71 0c-3 1-7-4-8-6l0-456c0-1 5-6 8-7l496 0c2 0 7 5 8 8l0 455c0 3-8 6-9 6l-89 0c-4 24-24 43-49 43-25 0-46-19-49-43z m-158-106l474 0 0-343-474 0z"/>
<glyph glyph-name="comuni-visualizzaricevuta" unicode="&#57398;" d="M257 469c0 17-8 32-28 32 16-9 25-35 26-52 0 7 2 17 2 20z m-38-13c0 13-2 34 10 45l-2 0c-15 0-27 8-29-39-2-47 23-124 23-131 0-14-144-302-201-302-5 0-4 0-5 1 8 34 51 71 84 99-20-10-99-50-99-89 0-10 20-20 31-20 12 0 15 2 30 12 28 21 51 56 67 81 9 11 12 27 22 32 15 10 36 11 52 16 33 8 70 18 103 23 9 2 31 5 34 5 12 0 86-42 140-42 10 0 33 5 31 21-3-7-14-8-21-8-30 0-82 22-105 34 19 3 52 5 57 5 13 0 64-4 71-20l0 10c0 24-72 23-77 23-4 0-73-7-78-7-3 0-89 78-105 112-3 8-10 22-10 27 0 5 10 65 10 84-7-19-10-43-18-59-10 29-15 58-15 87z m102-254c-53-8-114-23-165-46 27 47 56 102 74 148 15-31 53-80 91-102z"/>
<glyph glyph-name="comuni-share" unicode="&#57399;" d="M281 443c0-11 2-22 7-31l-164-113c-13 16-33 26-54 26-39 0-70-31-70-69 0-38 31-69 70-69 21 0 41 10 54 26l164-113c-5-9-7-20-7-31 0-38 31-69 69-69 39 0 70 31 70 69 0 38-31 69-70 69-13 0-25-3-36-10l-176 118c1 3 1 7 1 10 0 3 0 7-1 10l176 118c11-7 23-10 36-10 39 0 70 31 70 69 0 38-31 69-70 69-38 0-69-31-69-69z m33 0c0 20 16 36 36 36 20 0 36-16 36-36 0-20-16-36-36-36-20 0-36 16-36 36z m0-374c0 20 16 36 36 36 20 0 36-16 36-36 0-20-16-36-36-36-20 0-36 16-36 36z m-281 187c0 20 17 36 37 36 19 0 36-16 36-36 0-20-17-36-36-36-20 0-37 16-37 36z"/>
<glyph glyph-name="comuni-euro" unicode="&#57400;" d="M437 418l14 65c-29 19-65 29-107 29-45 0-85-10-122-30-59-32-96-85-110-158l-41 0-10-45 46 0c0-5 0-10 0-14 0-12 0-22 1-32l-37 0-10-45 54 0c5-24 11-45 19-62 36-84 105-126 208-126 35 0 66 7 95 20l0 71c-24-21-58-32-101-32-30 0-59 8-85 23-37 21-60 56-70 106l208 0 9 45-224 0c0 4 0 14 0 32 0 4 0 9 0 14l233 0 9 45-236 0c2 18 10 37 22 57 13 19 27 34 43 45 26 18 58 27 97 27 35 0 67-12 95-35z"/>
<glyph glyph-name="comuni-c-aggiungiinformazioni-n" unicode="&#57401;" d="M418 293l-26 17-136-110-128 110-35-17 163-137z m-418-37c0-141 115-256 256-256 141 0 256 115 256 256 0 141-115 256-256 256-141 0-256-115-256-256z m20 0c0 130 106 236 236 236 130 0 236-106 236-236 0-130-106-236-236-236-130 0-236 106-236 236z"/>
<glyph glyph-name="comuni-c-aggiungiinformazioni-s" unicode="&#57402;" d="M418 293l-162-137-163 137 35 17 128-110 136 110z m-418-37c0-141 115-256 256-256 141 0 256 115 256 256 0 141-115 256-256 256-141 0-256-115-256-256z"/>
<glyph glyph-name="comuni-orologio" unicode="&#57403;" d="M302 509c-10 0-27 3-29 3l-34 0c-14 0-45-7-54-9-9-3-19-6-27-10-9-4-19-9-27-13-75-40-120-122-128-182-1-11-2-24-3-35l1-25c15-155 139-238 255-238 140 0 256 114 256 256 0 32-6 64-19 96-2 7-6 14-10 22-35 74-122 127-181 135z m191-253c0-132-106-237-237-237-88 0-193 52-229 175-2 7-8 40-8 51l0 23c11 145 127 225 237 225 132 0 237-107 237-237z m-286 1c0-17 14-30 30-30 1 0 3 0 4 0l57-85 16 11-55 84c5 5 8 12 8 20 0 5-2 9-4 13l110 128-15 13-109-127c-4 1-8 2-12 2-16 0-30-13-30-29z"/>
<glyph glyph-name="comuni-check" unicode="&#57404;" d="M512 478c0-6-40-67-45-76-74-119-149-243-227-365-3-6-7-6-12-6-12 0-31 23-40 30-63 54-126 110-186 165-3 3-2 3-2 8 1 7 5 14 14 14 10 0 62-50 64-51 49-44 98-87 148-131 86 140 172 281 259 419 3 5 8 6 12 7 7 0 15-5 15-14z"/>
<glyph glyph-name="comuni-cancellacampo" unicode="&#57405;" d="M383 368l-113-113 113-112-15-15-113 113-113-113-14 15 113 112-113 113 15 15 112-113 114 113z m-383-113c0-141 114-255 255-255 141 0 256 114 257 255 1 142-114 257-255 257-142 0-257-115-257-257z"/>
<glyph glyph-name="ops-filiale" unicode="&#57406;" d="M481 313l0 15 2 0c16 0 29 12 29 27l0 19c0 16-12 21-23 26l-228 111c-3 1-6 1-9 0l-227-109-2-1c-11-5-23-10-23-26l0-19c0-16 13-28 29-28l2 0 0-15c0-12 9-22 20-25l0-216-29 0c-12 0-22-11-22-23l0-27c0-12 10-22 22-22l468 0c12 0 22 10 21 23l0 27c0 11-9 22-22 22l-28 0 0 216c11 3 20 13 20 25z m-20 0c0-3-3-6-6-6l-90 0c-4 0-7 3-7 6l0 15 103 0z m-154-241l0 216c11 3 21 13 21 25l0 15 10 0 0-15c0-12 9-22 20-25l0-216z m-153 216c11 3 20 13 20 25l0 15 10 0 0-15c0-12 10-22 21-25l0-216-51 0z m71-1l62 0 0-215-62 0z m76 20l-90 0c-3 0-6 3-6 6l0 15 102 0 0-15c0-3-3-6-6-6z m-281 49l0 19c0 2 0 3 12 7l224 108 221-106 2-1c11-5 11-6 11-8l0-19c0-5-3-8-8-8l-453 0c-4 0-9 3-9 8z m134-28l0-15c0-3-3-6-7-6l-90 0c-3 0-6 3-6 6l0 15z m-82-41l61 0 0-215-61 0z m418-238l0-27c0 0 0-2-1-2l-467 0c0 0-2 2-2 3l0 27 2 1 0-1 467 0c0 0 1 0 1-1z m-111 23l0 215 61 0 0-215z"/>
<glyph glyph-name="azioni-c-ripeti-n" unicode="&#57407;" d="M20 256c0 130 106 236 236 236 130 0 236-106 236-236 0-130-106-236-236-236-130 0-236 106-236 236z m-20 0c0-141 115-256 256-256 141 0 256 115 256 256 0 141-115 256-256 256-141 0-256-115-256-256z m325 32l-31 30 53 0c11 0 19-8 19-18l0-132c0-10-8-19-19-19l-76 0 0-18 76 0c21 0 38 16 38 37l0 132c0 20-17 37-38 37l-53 0 31 31-13 13-55-53 55-54z m-139-65l32-31-53 0c-11 0-19 9-19 19l0 132c0 10 8 19 19 19l76 0 0 18-76 0c-21 0-38-16-38-37l0-132c0-21 17-37 38-37l53 0-32-31 14-14 54 54-54 54z"/>
<glyph glyph-name="azioni-c-ripeti-s" unicode="&#57408;" d="M325 288l-13-14-55 54 55 53 13-13-31-31 53 0c21 0 38-17 38-37l0-132c0-21-17-37-38-37l-76 0 0 18 76 0c11 0 19 9 19 19l0 132c0 10-8 18-19 18l-53 0z m-139-65l14 14 54-54-54-54-14 14 32 31-53 0c-21 0-38 16-38 37l0 132c0 21 17 37 38 37l76 0 0-18-76 0c-11 0-19-9-19-19l0-132c0-10 8-19 19-19l53 0z m-186 33c0-141 115-256 256-256 141 0 256 115 256 256 0 141-115 256-256 256-141 0-256-115-256-256z"/>
<glyph glyph-name="azioni-c-riprova-n" unicode="&#57409;" d="M20 256c0 130 106 236 236 236 130 0 236-106 236-236 0-130-106-236-236-236-130 0-236 106-236 236z m-20 0c0-141 115-256 256-256 141 0 256 115 256 256 0 141-115 256-256 256-141 0-256-115-256-256z m188 115c0 4-3 8-8 8-6 0-12-9-17-15-10-10-44-40-44-48 0-5 16-19 19-23 2-2 35-39 42-39 3 0 8 2 8 7 0 2-1 5-3 6-13 14-26 27-39 41l159 0c24 1 73-26 73-71l0-16c0-37-35-65-57-68-5-1-9-3-14-4l-185 0c-3-2-3-4-3-7 0-2 0-7 3-9l182 0c9 0 22 4 30 7 44 20 59 56 59 89 0 44-29 92-93 95l-154 1c14 14 28 28 41 41 1 2 1 3 1 5z"/>
<glyph glyph-name="azioni-c-riprova-s" unicode="&#57410;" d="M188 371c0-2 0-3-1-5-13-13-27-27-41-41l154-1c64-3 93-51 93-95 0-33-15-69-59-89-8-3-21-7-30-7l-182 0c-3 2-3 7-3 9 0 3 0 5 3 7l185 0c5 1 9 3 14 4 22 3 57 31 57 68l0 16c0 45-49 72-73 71l-159 0c13-14 26-27 39-41 2-1 3-4 3-6 0-5-5-7-8-7-7 0-40 37-42 39-3 4-19 18-19 23 0 8 34 38 44 48 5 6 11 15 17 15 5 0 8-4 8-8z m-188-115c0-141 115-256 256-256 141 0 256 115 256 256 0 141-115 256-256 256-141 0-256-115-256-256z"/>
<glyph glyph-name="comuni-filtro" unicode="&#57411;" d="M512 512l-512 0 167-206 0-195 157-111 0 305z m-325-213l117 0 0-261-117 82z m281 194l-158-174-128 0-141 174z"/>
<glyph glyph-name="comuni-freccia-accordion-apri" unicode="&#57412;" d="M18 388c22-20 44-43 68-64 55-55 113-109 170-163 15 13 30 28 45 42 11 11 24 23 36 35 51 48 102 99 155 148 1 0 6 3 9 3 8 0 11-6 11-11 0-10-14-17-23-28-7-7-15-15-23-22-12-12-25-23-36-34-55-52-110-105-164-157-2-1-8-4-10-4-1 0-6 1-8 3-14 12-28 25-40 38-12 11-24 23-36 34-56 53-114 106-169 161-4 4-3 6-3 9 0 7 5 11 11 11 2 0 5 0 7-1z"/>
<glyph glyph-name="comuni-freccia-accordion-chiudi" unicode="&#57413;" d="M494 134c-22 21-44 43-68 65-55 54-113 108-170 163-15-14-30-29-45-43-11-11-24-23-36-35-51-48-102-99-155-148-1 0-6-3-9-3-8 0-11 7-11 11 0 11 14 17 23 28 7 8 15 15 23 22 12 12 25 23 36 35 55 51 110 104 164 156 2 1 8 4 10 4 1 0 6-1 8-3 14-12 28-25 40-37 12-12 24-23 36-35 56-53 114-106 169-161 4-4 3-5 3-9 0-6-5-11-11-11-2 0-5 0-7 1z"/>
<glyph glyph-name="comuni-search" unicode="&#57414;" d="M373 328c0 94-71 184-189 184-108 0-184-76-184-184 0-99 66-189 184-189 48 0 93 17 128 47l181-186c10 0 19 9 19 19l-186 181c29 32 47 75 47 128z m-38 0c0-99-80-151-151-151-99 0-146 80-146 151 0 85 61 146 146 146 99 0 151-75 151-146z"/>
<glyph glyph-name="azioni-c-salva-n" unicode="&#57415;" d="M307 374c-3 1-8 0-10 0-5 0-14 2-17-7l0-53c0-2 5-6 6-6 4 0 9 0 11 0 5 0 14-1 17 7l0 52c0 2-6 7-7 7z m29-10l41-42 0-187-25 0 0 104c0 7-12 18-18 16l-157 0c-6 2-18-10-17-16l0-104-25 0 0 242 41 0 0-81c0-1 3-6 6-8 1-1 5-2 6-3l135 0c5 0 12 10 13 12z m-2-229l-156 0 0 102 156 0z m-7 261l-194 0c-5 1-17-10-17-16l0-248c0-5 12-16 16-16l247 0c7 0 17 12 17 17l0 196c0 4-44 45-57 59-5 4-8 7-12 8z m-9-19l0-73-124 0 0 73z m-318-121c0-141 115-256 256-256 141 0 256 115 256 256 0 141-115 256-256 256-141 0-256-115-256-256z m20 0c0 130 106 236 236 236 130 0 236-106 236-236 0-130-106-236-236-236-130 0-236 106-236 236z"/>
<glyph glyph-name="azioni-c-salva-s" unicode="&#57416;" d="M327 396c4-1 7-4 12-8 13-14 57-55 57-59l0-196c0-5-10-17-17-17l-247 0c-4 0-16 11-16 16l0 248c0 6 12 17 17 16z m-327-140c0-141 115-256 256-256 141 0 256 115 256 256 0 141-115 256-256 256-141 0-256-115-256-256z m318 121l-124 0 0-73 124 0z m-11-3c1 0 7-5 7-7l0-52c-3-8-12-7-17-7-2 0-7 0-11 0-1 0-6 4-6 6l0 53c3 9 12 7 17 7 2 0 7 1 10 0z m27-239l0 102-156 0 0-102z m2 229l0-67c-1-2-8-12-13-12l-135 0c-1 1-5 2-6 3-3 2-6 7-6 8l0 81-41 0 0-242 25 0 0 104c-1 6 11 18 17 16l157 0c6 2 18-9 18-16l0-104 25 0 0 187z"/>
<glyph glyph-name="azioni-c-elimina-n" unicode="&#57417;" d="M384 361l-15 14-113-113-113 113-15-14 113-114-113-113 15-15 113 114 113-114 15 15-113 113z m-384-105c0-141 115-256 256-256 141 0 256 115 256 256 0 141-115 256-256 256-141 0-256-115-256-256z m20 0c0 130 106 236 236 236 130 0 236-106 236-236 0-130-106-236-236-236-130 0-236 106-236 236z"/>
<glyph glyph-name="azioni-c-elimina-s" unicode="&#57418;" d="M383 368l-113-113 113-112-15-15-113 113-113-113-14 15 113 112-113 113 15 15 112-113 114 113z m-383-113c0-141 114-255 255-255 141 0 256 114 257 255 1 142-114 257-255 257-142 0-257-115-257-257z"/>
<glyph glyph-name="comuni-c-persona-n" unicode="&#57419;" d="M15 256c0 133 108 241 241 241 133 0 241-108 241-241 0-133-108-241-241-241-133 0-241 108-241 241z m-15 0c0-141 115-256 256-256 141 0 256 115 256 256 0 141-115 256-256 256-141 0-256-115-256-256z m371-117c-2 35-29 46-51 55-13 5-25 10-28 18-1 7-1 12-1 18l0 2c5 6 11 17 12 27 4 2 9 7 11 20 1 6-1 11-4 14 4 12 10 41-1 60-5 8-12 13-22 15-5 7-15 11-29 11-21-1-36-7-45-19-11-15-13-37-6-67-3-3-4-8-4-14 2-13 7-18 11-20 2-10 7-21 12-27l0-2c0-6 0-11 0-18-4-8-15-13-28-18-22-9-50-20-52-55l0-6 225 0z m-213 6c4 23 24 31 44 38 15 7 30 12 34 26l1 1c0 8 0 14 0 20l0 5 0 4-3 1c-2 2-9 14-10 24l0 5-5 0c-1 0-3 2-5 11 0 5 2 7 2 7l4 2-1 4c-7 27-6 47 3 60 7 9 19 14 36 14 11 0 18-2 21-7l1-2 3-1c7-1 13-4 16-10 9-14 4-40 0-54l-2-4 4-2c0 0 2-2 2-7-1-9-4-11-5-11l-5 0 0-5c-1-11-8-22-10-24l-3-1 0-9c0-6 0-12 1-20l0-1c5-14 19-19 35-26 19-7 39-15 43-38z"/>
<glyph glyph-name="comuni-c-persona-s" unicode="&#57420;" d="M316 183c-16 7-30 12-35 26l0 1c-1 8-1 14-1 20l0 9 3 1c2 2 9 13 10 24l0 5 5 0c1 0 4 2 5 11 0 5-2 7-2 7l-4 2 2 4c4 14 9 40 0 54-3 6-8 9-16 10l-3 1-1 2c-3 5-10 7-21 7-17 0-29-5-36-14-9-12-10-33-3-60l1-4-4-2c0 0-2-2-2-7 2-9 4-11 5-11l5 0 0-5c1-10 8-22 10-24l3-1 0-4 0-5c0-6 0-12 0-20l-1-1c-4-14-19-19-34-26-20-7-40-15-44-38l201 0c-4 23-24 31-43 38z m-60 329c-141 0-256-115-256-256 0-141 115-256 256-256 141 0 256 115 256 256 0 141-115 256-256 256z m-110-379l0 6c2 35 30 46 52 55 13 5 24 10 28 18 0 7 0 12 0 18l0 2c-5 6-10 17-12 27-4 2-9 7-11 20 0 6 1 11 4 14-7 30-5 52 6 67 9 12 24 18 45 19 14 0 24-4 29-11 10-2 17-7 22-15 11-19 5-48 1-60 3-3 5-8 4-14-2-13-7-18-11-20-1-10-7-21-12-27l0-2c0-6 0-11 1-18 3-8 15-13 28-18 22-9 49-20 51-55l0-6z"/>
<glyph glyph-name="comuni-c-azienda-n" unicode="&#57421;" d="M512 256c0 141-114 256-256 256-118 0-243-84-256-241l0-30c0-1 3-28 6-41 2-11 5-23 10-34 48-119 152-166 240-166 141 0 256 114 256 256z m-188 234c9-3 19-7 30-11 39-14 96-65 116-108 3-6 6-12 9-17 3-8 6-18 9-26 1-4 3-10 4-16 3-11 7-35 7-37l0-37c-2-13-4-25-7-38-10-50-52-119-113-153-6-3-13-7-19-10-6-3-12-6-17-8-10-3-20-7-29-9-1 0-34-7-40-7l-37 0c-10 2-20 3-31 5-32 7-68 22-99 46-32 24-58 58-71 88-3 7-6 15-9 22-4 10-7 22-9 32-2 10-5 30-5 31l0 38c2 12 3 24 6 37 11 51 52 119 114 154 8 4 17 9 25 13 8 3 16 6 24 9 7 3 16 4 24 6 10 3 31 5 33 5l34 0c12 0 41-7 51-9z m42-331l-86 0 0 57c0 2-2 5-5 5l-38 0c-3 0-5-3-5-5l0-57-86 0 0 166 110 28 110-28z m-96 0l-28 0 0 52 28 0z m101 174l-114 29c-1 0-1 0-2 0l-114-29c-3 0-4-2-4-4l0-175c0-2 2-4 5-4l228 0c3 0 5 2 5 4l0 175c0 2-1 4-4 4z m-167-46l-29 0 0 19 29 0z m4 28l-38 0c-2 0-4-2-4-5l0-28c0-3 2-5 4-5l38 0c3 0 5 2 5 5l0 28c0 3-2 5-5 5z m100-104l29 0 0-19-29 0z m-4-28l38 0c2 0 4 2 4 5l0 28c0 2-2 5-4 5l-38 0c-3 0-5-3-5-5l0-28c0-3 2-5 5-5z m4 123l29 0 0-19-29 0z m-4-29l38 0c2 0 4 2 4 5l0 28c0 3-2 5-4 5l-38 0c-3 0-5-2-5-5l0-28c0-3 2-5 5-5z m-34-38l-28 0 0 19 28 0z m5 29l-38 0c-3 0-5-2-5-5l0-28c0-3 2-5 5-5l38 0c3 0 5 2 5 5l0 28c0 3-2 5-5 5z m-71-29l-29 0 0 19 29 0z m4 29l-38 0c-2 0-4-2-4-5l0-28c0-3 2-5 4-5l38 0c3 0 5 2 5 5l0 28c0 3-2 5-5 5z m-4-76l-29 0 0 19 29 0z m4 29l-38 0c-2 0-4-3-4-5l0-28c0-3 2-5 4-5l38 0c3 0 5 2 5 5l0 28c0 2-2 5-5 5z m34 85l28 0 0-19-28 0z m-10 4l0-28c0-3 2-5 5-5l38 0c3 0 5 2 5 5l0 28c0 3-2 5-5 5l-38 0c-3 0-5-2-5-5z m76-52l29 0 0-19-29 0z m-4-28l38 0c2 0 4 2 4 5l0 28c0 3-2 5-4 5l-38 0c-3 0-5-2-5-5l0-28c0-3 2-5 5-5z"/>
<glyph glyph-name="comuni-c-azienda-s" unicode="&#57422;" d="M371 333c3 0 4-2 4-4l0-175c0-2-2-4-5-4l-228 0c-3 0-5 2-5 4l0 175c0 2 1 4 4 4l114 29c1 0 1 0 2 0z m141-77c0 141-114 256-256 256-118 0-243-84-256-241l0-30c0-1 3-28 6-41 2-11 5-23 10-34 48-119 152-166 240-166 141 0 256 114 256 256z m-146-97l0 166-110 28-110-28 0-166 86 0 0 57c0 2 2 5 5 5l38 0c3 0 5-3 5-5l0-57z m-158 156c3 0 5-2 5-5l0-28c0-3-2-5-5-5l-38 0c-2 0-4 2-4 5l0 28c0 3 2 5 4 5z m96-132c-3 0-5 2-5 5l0 28c0 2 2 5 5 5l38 0c2 0 4-3 4-5l0-28c0-3-2-5-4-5z m0 94c-3 0-5 2-5 5l0 28c0 3 2 5 5 5l38 0c2 0 4-2 4-5l0-28c0-3-2-5-4-5z m-29-9c3 0 5-2 5-5l0-28c0-3-2-5-5-5l-38 0c-3 0-5 2-5 5l0 28c0 3 2 5 5 5z m-67 0c3 0 5-2 5-5l0-28c0-3-2-5-5-5l-38 0c-2 0-4 2-4 5l0 28c0 3 2 5 4 5z m0-47c3 0 5-3 5-5l0-28c0-3-2-5-5-5l-38 0c-2 0-4 2-4 5l0 28c0 2 2 5 4 5z m24 89c0 3 2 5 5 5l38 0c3 0 5-2 5-5l0-28c0-3-2-5-5-5l-38 0c-3 0-5 2-5 5z m72-80c-3 0-5 2-5 5l0 28c0 3 2 5 5 5l38 0c2 0 4-2 4-5l0-28c0-3-2-5-4-5z m-100 57l0 19-29 0 0-19z m104-76l0-19 29 0 0 19z m0 95l0-19 29 0 0 19z m-38-67l0 19-28 0 0-19z m-66 0l0 19-29 0 0-19z m0-47l0 19-29 0 0-19z m38 114l0-19 28 0 0 19z m66-48l0-19 29 0 0 19z m-38-99l0 52-28 0 0-52z"/>
<glyph glyph-name="ops-personafisica" unicode="&#57423;" d="M501 13c-4 73-62 96-109 114-28 11-53 21-60 38-1 13-1 24-1 36l0 6c11 11 22 34 26 55 8 5 19 15 22 42 2 13-2 23-7 29 7 24 21 86-4 126-10 16-26 27-46 31-11 14-33 22-62 22-44-1-77-14-96-40-23-31-28-77-13-138-6-7-9-17-8-30 3-27 14-38 22-42 4-21 16-44 27-55l0-6c0-12 0-23-1-36-8-17-32-27-60-38-47-18-105-41-110-114l-1-13 482 0z m-454 11c9 48 51 64 93 81 32 13 63 25 74 53l1 3c1 15 1 28 1 40l0 11 0 8-7 3c-5 4-19 28-21 49l-1 10-10 1c-2 0-8 5-10 23-1 10 3 14 4 14l7 4-2 9c-15 56-12 99 7 124 15 20 41 30 77 31 23 0 39-6 45-15l2-5 6-1c16-2 28-9 35-21 18-30 8-85-1-112l-3-9 8-5c0 0 5-4 3-14-2-18-8-23-10-23l-10-1-1-10c-2-21-16-46-20-49l-7-3 0-19c0-12 0-25 1-40l1-3c10-28 41-40 74-53 41-17 83-33 93-81z"/>
<glyph glyph-name="ops-personagiuridica" unicode="&#57424;" d="M267 287c3-1 6-5 9-7 2-1 6-2 9-2 12-4 13-19 13-27 0-9-6-34-6-34 0-2 4-9 4-11 0-1 0-5-1-6-2-2-6-4-7-7-3-6-3-14-8-21-7-9-7-13-7-22 0-7-2-14 1-21 6-13 24-20 34-25 15-5 37-11 46-32l-199 0c2 3 4 8 7 11 7 8 18 12 27 16 15 7 43 13 48 36l0 27c-3 3-7 8-9 12-3 7-4 14-7 19 0 3-4 3-6 6-2 2-2 6-2 7 0 2 4 9 4 11 0 1-4 22-4 24l0 17c3 25 25 31 41 31 2 0 9 0 13-2z m13 16c-8 5-18 6-26 6-9 0-19-1-27-4-2 1-4 3-5 4l0 15c0 2 5 8 7 11 1 3 2 8 4 10 1 3 4 5 5 7 3 6 5 12 5 17 0 4-3 11-3 12 0 2 4 17 4 28 0 12-3 28-17 38-4 2-8 2-11 4-10 8-20 10-29 10-23 0-52-10-55-44l0-19c0-2 3-15 3-17 0 0-1-2-2-4-4 0-8 0-12 0-26 0-56-10-61-49l0-21c0-1 3-17 3-19 0 0-3-10-3-13 0-5 1-14 5-20 1-2 4-4 5-6 2-3 3-7 4-10 1-4 6-12 9-16l0-18c-3-4-7-7-10-8-32-13-73-28-73-65 0-4 1-10 8-13l175 0c-17-6-39-18-46-38-2-5-4-12-4-18 0-4 0-9 8-12l227 0c6 0 9 8 9 12 0 15-12 39-32 48-6 2-13 5-19 8l178 0c7 0 8 10 8 12 0 28-26 48-55 58-9 4-24 7-28 19l0 15c5 6 7 11 9 17 1 3 1 7 3 9 6 7 11 16 11 26 0 5-3 10-3 13 0 5 5 14 5 31 0 13 0 7-5 24-2 7-10 16-15 19-4 2-9 3-12 5-12 9-22 10-32 10-4 0-8 0-12 0-1 2-1 4-1 4 0 4 4 20 4 28 0 6-1 14-4 20-2 6-8 14-14 18-4 2-8 2-11 5-11 7-19 9-29 9-24 0-52-10-55-46l0-16c0-1 3-16 3-18 0-2-3-6-3-11 0-5 2-13 4-18 2-2 5-4 6-7 2-5 5-15 11-21l0-12c-2-1 0-4-4-6-1-1-3-2-5-3z m-72-9c-8-8-14-20-16-36l0-5-16 0-1-1c0-1 0-1-1-2 1 1 2 2 2 3 6 9 8 14 8 21 0 2 0 4-1 6 0 2-3 6-3 8 0 1 4 12 4 19 1 4 2 11 2 12 0 12-4 29-16 40-3 3-7 5-10 6-2 0-5 0-6 2l-2 1 0 1c0 1 4 8 4 10 0 4-4 19-4 29 0 23 13 32 34 32 8 0 11 0 20-7 1-2 5-2 7-2 9-4 11-15 11-23 0-9-5-25-5-29 0-3 3-8 3-10 0-5-3-4-7-10-3-5-3-11-6-17-1-2-3-5-6-9-1-1-1-11-1-14 0-5-1-13 2-19 1-2 3-4 4-6z m-16-53c0-1 4-19 4-21 0 0-4-10-4-14 0-6 2-14 6-20 0 0 0 0 1 0-3 1-6 2-9 3-10 3-21 6-30 17l0 17c0 2 4 5 5 7 0 1 1 2 2 3l26 0c0 3-1 5-1 6z m25-93c0-2 0-5-1-8l-193 0c1 3 3 8 5 10 6 7 15 12 22 15 17 9 50 14 54 40l0 24c-2 3-6 8-8 12-3 5-5 13-6 17-1 3-5 6-7 8-2 2-3 6-3 8 0 1 5 9 5 11 0 2-5 26-5 33 0 29 16 39 41 39 7 0 12 0 21-8 5-4 12-2 17-8 4-5 6-16 6-22 0-8-6-33-6-34 0-3 5-8 5-10 0-2-1-5-2-7-2-2-6-3-7-7-3-4-3-10-5-15-1-3-3-6-5-9-1-2-3-3-4-5-2-3-1-11-1-15 0-2-2-11 0-17 15-33 61-29 77-52z m76-8l0 5c23 35 80 23 80 67l0 14c-1 2-1 6-3 8-12 10-7 24-18 32-2 1-4 7-4 8 0 2 4 6 5 9l0 2-5 26 0 13c2 28 24 33 41 33 8 0 12 0 23-9 3-3 9-1 13-5 9-8 8-15 8-24 0-1 0-6-1-9-1-8-5-23-5-25 0-2 5-10 5-11 0-2-1-5-2-7-2-2-5-3-7-6-2-3-2-7-3-10-1-4-3-9-6-13-5-7-6-12-6-20 0-1-1-13 1-19 5-17 25-23 38-28 14-6 34-11 42-31z m14 42c1 2 3 3 4 4 4 7 6 15 6 20 0 2-3 12-3 14 0 3 4 17 4 30l0-1c0-6 0-11-1-16l29 0c1-4 3-7 6-10l0-15c-1-2-2-5-5-8-12-7-27-11-40-18z m11 71c0 8-2 18-5 25-2 3-8 11-12 14 3 4 6 8 8 14l0 25c-2 3-5 7-7 11-3 5-4 12-7 17 0 2-3 3-5 5-1 1-1 3-1 5 0 1 3 8 3 10 0 2-3 18-3 19l0 17c1 21 20 25 34 25 1 0 8 0 11-1 3-1 5-5 9-7 3-1 6-1 9-3 9-5 8-14 8-21 0-12-5-25-5-29 0-2 2-5 3-8-16-7-29-21-30-47l0-13c0-1 4-21 4-22 0-2-4-11-4-14 0-6 2-13 5-19 0-1 1-2 2-3z m18-1c0 0 1-1 2-2-1 0-2 1-2 2z"/>
<glyph glyph-name="ops-dittaindividuale" unicode="&#57425;" d="M434 51c-7 49-48 66-81 79-21 8-39 16-44 28-1 11-1 19-1 28l0 4c8 9 16 27 19 43 7 3 15 11 17 31 1 10-2 18-6 23 6 18 16 65-2 95-8 13-19 20-35 24-8 10-24 16-46 16-33 0-57-10-72-30-17-23-20-59-9-105-4-5-7-13-6-23 2-20 10-28 17-32 3-15 11-33 19-42l0-4c0-9 0-17 0-28-6-12-24-20-45-28-33-13-74-30-81-79l-58 0 0 360 236 60 236-60 0-360z m-338 1c7 36 39 49 70 61 24 10 47 19 55 40l0 2c1 12 1 22 1 31l0 9 0 5-4 3c-4 2-15 21-17 37l0 8-8 0c-1 1-5 4-7 18-1 8 3 10 3 10l5 4-1 6c-11 43-10 76 5 95 11 15 30 23 57 23 17 0 29-4 33-11l3-4 4-1c12-2 20-7 26-16 13-22 6-64-1-85l-2-7 5-4c1 0 4-2 3-10-2-14-6-17-7-18l-8 0 0-8c-2-16-12-35-16-37l-5-3 0-14c0-9 0-19 1-31l1-2c7-21 30-30 55-40 30-12 62-25 69-61z m408 377l-245 62c-2 1-4 1-6 0l-245-62c-5-1-8-6-8-10l0-378c0-6 5-10 10-10l492 0c5 0 10 4 10 10l0 378c0 4-3 9-8 10z"/>
<glyph glyph-name="ops-cittadinanzaitaliana" unicode="&#57426;" d="M343 81c-4 52-45 69-78 82-20 8-38 15-43 27-1 10-1 18-1 26l1 5c7 8 15 24 18 39 6 4 13 11 16 30 1 10-2 17-6 22 5 17 16 61-2 90-7 12-18 19-33 22-8 11-24 16-44 16-32 0-55-10-69-29-16-22-19-55-9-99-4-5-7-12-6-22 3-19 10-27 16-30 3-15 11-32 19-39l0-4c0-9 0-17-1-27-5-12-22-19-42-27-34-13-75-30-78-82l-1-9 343 0z m-324 8c6 34 37 46 66 58 23 9 45 18 53 38l0 2c1 12 1 20 1 30l0 8 0 5-4 2c-4 3-14 20-16 36l0 7-7 1c-2 0-6 3-8 16 0 7 3 10 3 10l5 3-1 6c-11 41-9 72 5 90 10 14 29 22 55 22 16 0 28-4 32-11l2-4 4 0c11-2 19-7 25-15 13-22 5-61-1-81l-2-7 5-3c0 0 4-3 3-10-2-13-6-16-7-16l-7-1-1-7c-2-16-12-33-15-36l-5-2 0-13c0-10 0-18 1-30l1-2c7-20 29-29 53-38 29-12 59-24 65-58z m302 99l0 98-19 0 0-98z m66 0l0 82 30 0 0 16-79 0 0-16 30 0 0-82z m63 38l14 44 15-44z m26 60l-24 0-35-98 20 0 7 22 41 0 7-22 20 0z"/>
<glyph glyph-name="ops-cittadinanzaestera" unicode="&#57427;" d="M245 173c-7 12-11 25-13 36 0 2 0 4-1 6l0 4 1 0 47 0c1-16 3-32 7-49-7-2-14-4-21-7-8 3-14 6-20 10z m245 46c-2-20-9-42-24-62-10 6-21 10-31 12 4 17 6 34 7 50z m-39-78c-10-9-23-18-39-24 7 10 12 21 16 32 9-3 17-5 23-8z m-9 99l0 1c-1 17-3 33-7 50 8 2 16 5 24 9 2 1 5 2 7 3 15-19 22-41 24-63z m-14 71c-4 11-9 22-16 32 15-6 28-15 38-24-8-3-16-7-20-8z m-105-176c-3 6-6 13-9 20l6 1c6 0 13 1 20 2l9 0 0-49c-1 0-2 0-3 1-6 10-14 18-23 25z m33-49c1 0 3 0 5 0 75 0 151 57 151 144 0 85-74 144-151 144-32 0-66-9-93-29 3 20 3 46-9 65-8 13-19 21-35 24-8 11-24 17-46 17-33-1-57-11-71-31-18-23-21-59-10-105-4-5-7-13-6-23 3-20 10-28 17-31 3-16 11-34 19-42l1-5c0-9 0-17-1-27-6-13-24-21-45-29-35-14-78-31-81-87l-1-10 358 0 0 10c-1 5-1 10-2 15z m-89 211c6-2 13-4 19-6-4-17-6-34-7-51l-35 0c3 7 5 14 7 21 6 3 14 11 16 31 0 2 0 3 0 5z m2 21c8 8 17 14 27 19 3 2 8 4 13 6-7-10-12-21-16-33-7 2-13 4-19 7-1 0-3 1-5 1z m117 23c9-11 16-23 22-35-8-1-16-2-24-3-4 0-11-1-13-1-1 0 0 0-1 0l0 50c6-2 11-5 16-11z m28-55c4-16 6-31 6-46l-50 0 0 42c15 0 30 1 44 4z m6-67c-1-11-3-23-4-34-1-2-1-6-3-11-3 1-6 1-10 2-11 2-22 2-33 2l0 41z m-13-65c-8-19-20-40-37-46l0 50 9 0c7 0 17-2 28-4z m-99 21c-5 17-7 33-7 39l0 5 48 0 0-41c-13 0-27-1-41-3z m-7 65l0 5c1 3 1 6 1 9-1 3 1 16 6 32 2 0 4-1 7-1 10-2 23-3 34-3l0-42z m13 66c8 20 19 39 35 45l0-49c-11 0-21 2-29 3-2 0-4 0-6 1z m-294-226c6 36 38 49 69 61 24 10 47 19 55 40l0 3c2 12 1 21 1 30l0 9 0 5-4 3c-4 3-15 21-16 38l-1 7-8 1c-1 0-5 3-7 17-1 8 3 10 3 10l5 4-1 6c-11 43-9 76 5 95 11 15 30 23 57 23 17 0 30-4 33-11l3-4 4-1c12-1 20-7 26-16 14-22 6-64-1-85l-2-7 6-4c0 0 3-2 2-10-1-14-6-17-7-17l-7-1-1-7c-2-17-12-35-16-38l-4-3-1-14c0-9 0-18 1-30l1-3c8-21 31-30 55-40 31-12 62-25 69-61z"/>
<glyph glyph-name="ops-aggiungidebitore" unicode="&#57428;" d="M266 214c-1 11-1 20-1 31l0 5c9 9 18 29 22 47 7 4 16 13 19 36 1 11-2 20-7 26 6 20 19 73-2 107-9 14-22 23-40 27-10 12-28 19-53 19-38-1-65-12-82-35-20-26-23-66-11-118-4-6-8-14-6-26 2-23 11-32 18-36 4-18 14-38 23-47l0-5c0-10 0-20-1-31-6-15-27-23-51-33-40-15-90-35-93-98l-1-11 256 0-6 21-228 0c8 41 44 55 80 69 28 11 54 22 63 46l0 2c2 14 2 24 1 35l0 10 1 6-6 3c-4 3-16 24-18 42l-1 9-9 0c-1 1-6 4-8 21-1 8 3 11 3 11l6 4-1 7c-13 48-11 85 5 107 13 17 35 26 66 26 19 0 34-4 38-13l3-4 5-1c13-2 23-7 29-18 16-25 7-72-1-96l-2-8 6-4c1 0 5-3 4-11-2-17-8-20-9-21l-8 0-1-9c-2-18-14-39-18-42l-5-3-1-16c0-11 0-21 1-35l1-2c4-11 10-19 19-24l10 18c-4 2-7 6-9 12z m134-28l-21 0 0-52-51 0 0-20 51 0 0-52 21 0 0 52 51 0 0 20-52 0z m-11 62c-67 0-122-56-122-124 0-68 55-124 122-124 68 0 123 56 123 124 0 68-55 124-123 124z m0-227c-56 0-102 46-102 103 0 57 46 103 102 103 57 0 103-46 103-103 0-57-46-103-103-103z"/>
<glyph glyph-name="comuni-c-chiudiinformazioni-n" unicode="&#57429;" d="M94 219l26-17 136 110 128-110 35 17-163 137z m418 37c0 141-115 256-256 256-141 0-256-115-256-256 0-141 115-256 256-256 141 0 256 115 256 256z m-20 0c0-130-106-236-236-236-130 0-236 106-236 236 0 130 106 236 236 236 130 0 236-106 236-236z"/>
<glyph glyph-name="comuni-c-chiudiinformazioni-s" unicode="&#57430;" d="M94 219l162 137 163-137-35-17-128 110-136-110z m418 37c0 141-115 256-256 256-141 0-256-115-256-256 0-141 115-256 256-256 141 0 256 115 256 256z"/>
<glyph glyph-name="avvisi-comunicazione" unicode="&#57431;" d="M151 175l-131-100 0 201z m341 101l0-201-131 100z m-472-251l0 25 201 154c14 10 27 12 34 12l2 0c7 0 20-2 34-12l201-154 0-25z m411 229l0 99c31-26 51-43 61-51l0-1z m-349 0l-62 47 0 1c10 8 31 25 62 51z m20 167l5 2 298 0 5-2 0-14 0-47 0 1 0-123-65-50-66 48c0 0-8 5-21 5-12 0-24-7-24-7l-67-46-65 50z m77 20c32 28 37 30 43 35 9 7 20 11 34 11 14 0 25-4 34-11 5-4 40-35 40-35l-151 0z m-29 0l-58 0c-5 0-10-5-10-10l0-29 0 0 0-19-79-69c-2-2-3-5-3-8l0-291c0-5 5-10 10-10l492 0c5 0 10 5 10 10l0 291c0 3-1 6-3 8l-79 68 0 25 0 24c0 5-4 10-10 10l-35 0-24 0c-29 25-52 46-57 50-13 10-30 16-48 16-18 0-35-6-48-16-5-4-28-25-58-50z"/>
<glyph glyph-name="avvisi-c-comunicazione-n" unicode="&#57432;" d="M20 256c0 130 106 236 236 236 130 0 236-106 236-236 0-130-106-236-236-236-130 0-236 106-236 236z m-18-33l1-5c2-11 4-24 7-35 4-11 8-22 13-33l5-10 4-7c43-79 127-133 224-133l17 0c1 0 8 1 16 2 8 1 16 3 22 4 11 2 23 6 34 10 4 1 9 3 14 5 2 2 5 3 8 4 4 2 8 4 11 6l2 1c29 14 55 37 76 64 12 16 23 33 32 52 9 19 15 37 18 53 2 8 3 16 4 24 1 4 2 9 2 14l0 34c0 2-1 9-2 13l0 1c-2 14-4 28-8 41-13 39-32 72-55 98-16 18-34 34-55 47-37 23-81 37-128 39l-8 0 0 0c-48 0-93-13-132-37-40-24-75-59-98-106-14-28-23-59-25-92-1-4-1-7-1-10l0-22 1-7z m204-5l-61-47 0 94z m158 47l0-94-60 47z m-219-117l0 11 94 72c6 5 12 6 15 6l1 0c3 0 10-1 16-6l93-72 0-11z m191 107l0 47c14-13 24-21 28-25l0 0z m-162 0l-29 22 0 0c5 4 14 12 29 25z m9 78l2 2 139 0 2-2 0-6 0-22 0 0 0-58-30-23-31 23c0 0-3 2-9 2-6 0-12-3-12-3l-31-22-30 23z m36 10c15 13 17 14 20 16 4 4 9 5 16 5 6 0 12-1 16-5 2-2 18-16 18-16l-70 0z m-14 0l-26 0c-3 0-5-2-5-5l0-14 0 0 0-8-37-33c-1-1-1-2-1-3l0-137c0-3 2-5 4-5l229 0c3 0 5 2 5 5l0 137c0 1-1 2-2 3l-36 32 0 12 0 11c0 3-2 5-5 5l-16 0-11 0c-14 11-25 21-27 23-6 5-14 8-22 8-9 0-17-3-22-8-3-2-14-11-28-23z m34-343l17 0c-97 0-181 54-224 133 2-5 5-10 7-14 53-81 134-114 200-119z m-238 238c0-5 0-10 1-15z"/>
<glyph glyph-name="avvisi-c-comunicazione-s" unicode="&#57433;" d="M207 343c14 12 25 21 27 23 6 5 13 8 22 8 9 0 16-3 22-8 3-2 13-12 27-23l11 0 16 0c2 0 5-2 5-5l0-11 0-12 36-32c1-1 1-2 1-3l0-137c0-3-2-5-4-5l-228 0c-2 0-4 2-4 5l0 137c0 1 0 2 1 3l36 33 0 8 0 0 0 14c0 3 3 5 5 5z m-207-87c0-141 115-256 256-256 141 0 256 115 256 256 0 141-115 256-256 256-141 0-256-115-256-256z m207-38l-60 47 0-94z m158 47l-60-47 60-47z m-218-117l218 0 0 11-93 72c-6 5-12 6-15 6l-2 0c-3 0-9-1-15-6l-93-72z m190 107l28 22 0 0c-4 4-14 12-28 25z m-162 0l0 47c-14-13-23-21-28-25l0 0z m10 78l0-86 30-23 31 22c0 0 5 3 11 3 6 0 10-2 10-2l30-23 30 23 0 58 0 0 0 22 0 6-2 2-138 0z m35 10l0 0 70 0c0 0-16 14-18 16-4 4-10 5-16 5-6 0-12-1-16-5-3-2-5-3-20-16z"/>
<glyph glyph-name="avvisi-istituzionale" unicode="&#57434;" d="M5 266c0-17 14-32 31-32 16 0 30 12 32 28 16 8 35 17 51 24 5-5 13-9 22-9 17 0 31 14 31 32 0 4-1 8-2 12 18 16 37 33 56 49 5-5 12-8 19-8 10 0 18 5 24 12l49-21 0-1c0-18 14-32 32-32 17 0 31 14 31 32 0 5-2 11-4 15 20 25 40 51 59 76 1 2 3 4 6 7 3-1 8-2 12-2 17 0 31 14 31 32 0 18-14 32-31 32-17 0-31-14-31-32 0-6 1-11 4-16-22-27-43-55-64-83-4 2-9 3-13 3-11 0-20-5-25-13l-49 21c0 1 1 2 1 2 0 18-14 33-32 33-17 0-31-15-31-33 0-2 0-5 1-7-18-15-36-33-55-49l-3-2c-4 3-10 5-16 5-17 0-31-14-31-32 0-2 0-3 0-5-16-7-31-14-47-21-5 9-15 15-27 15-17 0-31-14-31-32z m27-124l49 0 0-131-49 0z m-11 11l0-153 70 0 0 153z m108 32l49 0 0-174-49 0z m-11 11l0-196 71 0 0 196z m119 71l49 0 0-256-49 0z m-11 11l0-278 70 0 0 278z m119-11l49 0 0-256-49 0z m-11 11l0-278 70 0 0 278z m114 71l48 0 0-338-48 0z m-11 10l0-359 70 0 0 359z"/>
<glyph glyph-name="avvisi-c-istituzionale-n" unicode="&#57435;" d="M20 256c0 130 106 236 236 236 130 0 236-106 236-236 0-130-106-236-236-236-130 0-236 106-236 236z m-18-33l1-5c2-11 4-24 7-35 4-11 8-22 13-33l5-10 4-7c43-79 127-133 224-133l17 0c1 0 8 1 16 2 8 1 16 3 22 4 11 2 23 6 34 10 4 1 9 3 14 5 2 2 5 3 8 4 4 2 8 4 11 6l2 1c29 14 55 37 76 64 12 16 23 33 32 52 9 19 15 37 18 53 2 8 3 16 4 24 1 4 2 9 2 14l0 34c0 2-1 9-2 13l0 1c-2 14-4 28-8 41-13 39-32 72-55 98-16 18-34 34-55 47-37 23-81 37-128 39l-8 0 0 0c-48 0-93-13-132-37-40-24-75-59-98-106-14-28-23-59-25-92-1-4-1-7-1-10l0-22 1-7z m136 35c0-8 7-15 15-15 8 0 14 6 15 13 8 4 17 8 24 12 3-3 7-5 11-5 8 0 14 7 14 15 0 2 0 4-1 6 9 7 18 15 27 23 2-2 6-4 9-4 5 0 9 3 12 6l23-10 0-1c0-8 6-15 15-15 8 0 15 7 15 15 0 3-1 6-2 8 9 12 18 23 27 35 1 1 2 2 3 4 2-1 4-1 6-1 8 0 15 6 15 15 0 8-7 15-15 15-8 0-15-7-15-15 0-3 1-6 2-8-10-13-20-26-30-39-2 1-4 2-6 2-5 0-9-3-12-6l-23 9c0 1 0 1 0 2 0 8-7 15-15 15-8 0-15-7-15-15 0-2 0-3 1-4-9-7-17-16-26-23l-2-1c-2 2-4 2-7 2-9 0-15-6-15-15 0 0 0-1 0-2-7-3-15-7-22-10-3 4-7 7-13 7-8 0-15-6-15-15z m13-58l23 0 0-62-23 0z m-5 5l0-72 33 0 0 72z m51 15l23 0 0-82-23 0z m-5 5l0-92 33 0 0 92z m56 34l23 0 0-121-23 0z m-5 5l0-131 33 0 0 131z m57-5l23 0 0-121-23 0z m-6 5l0-131 34 0 0 131z m54 33l23 0 0-159-23 0z m-5 5l0-169 33 0 0 169z m-104-302l17 0c-97 0-181 54-224 133 2-5 5-10 7-14 53-81 134-114 200-119z m-238 238c0-5 0-10 1-15z"/>
<glyph glyph-name="avvisi-c-istituzionale-s" unicode="&#57436;" d="M138 258c0 9 7 15 15 15 6 0 10-3 13-7 7 3 15 7 22 10 0 1 0 2 0 2 0 9 6 15 15 15 3 0 5 0 7-2l2 1c9 7 17 16 26 23-1 1-1 2-1 4 0 8 7 15 15 15 8 0 15-7 15-15 0-1 0-1 0-2l23-9c3 3 7 6 12 6 2 0 4-1 6-2 10 13 20 26 30 39-1 2-2 5-2 8 0 8 7 15 15 15 8 0 15-7 15-15 0-9-7-15-15-15-2 0-4 0-6 1-1-2-2-3-3-4-9-12-18-23-27-35 1-2 2-5 2-8 0-8-7-15-15-15-9 0-15 7-15 15l0 1-23 10c-3-3-7-6-12-6-3 0-7 2-9 4-9-8-18-16-27-23 1-2 1-4 1-6 0-8-6-15-14-15-4 0-8 2-11 5-7-4-16-8-24-12-1-7-7-13-15-13-8 0-15 7-15 15z m8-53l33 0 0-72-33 0z m46 20l33 0 0-92-33 0z m51 39l33 0 0-131-33 0z m51 0l34 0 0-131-34 0z m49 38l33 0 0-169-33 0z m-343-46c0-141 115-256 256-256 141 0 256 115 256 256 0 141-115 256-256 256-141 0-256-115-256-256z m151-56l0-62 23 0 0 62z m46 20l0-82 23 0 0 82z m51 39l0-121 23 0 0 121z m52 0l0-121 23 0 0 121z m48 38l0-159 23 0 0 159z"/>
<glyph glyph-name="avvisi-novita" unicode="&#57437;" d="M492 88c0-6-5-11-11-11-5 0-10 5-10 11l0 336c0 6 5 11 10 11 6 0 11-5 11-11z m-41 15l-390 139 0 48 390 120z m-210 29c-2-6-6-11-12-15-6-3-13-3-19-1l-43 15c-13 4-20 19-16 32l8 22 89-32z m-200 103c0-6-5-11-10-11-6 0-11 5-11 11l0 63c0 6 5 11 11 11 5 0 10-5 10-11z m440 221c-14 0-26-10-29-24l-393-121c-5 11-16 19-28 19-17 0-31-15-31-32l0-63c0-17 14-32 31-32 12 0 22 8 27 18l82-29-8-22c-8-25 5-51 29-59l42-15c12-4 24-3 35 3 11 5 19 15 23 27l6 20 184-66c4-14 16-24 30-24 17 0 31 14 31 32l0 336c0 18-14 32-31 32z"/>
<glyph glyph-name="avvisi-c-novita-n" unicode="&#57438;" d="M20 256c0 130 106 236 236 236 130 0 236-106 236-236 0-130-106-236-236-236-130 0-236 106-236 236z m-18-33l1-5c2-11 4-24 7-35 4-11 8-22 13-33l5-10 4-7c43-79 127-133 224-133l17 0c1 0 8 1 16 2 8 1 16 3 22 4 11 2 23 6 34 10 4 1 9 3 14 5 2 2 5 3 8 4 4 2 8 4 11 6l2 1c29 14 55 37 76 64 12 16 23 33 32 52 9 19 15 37 18 53 2 8 3 16 4 24 1 4 2 9 2 14l0 34c0 2-1 9-2 13l0 1c-2 14-4 28-8 41-13 39-32 72-55 98-16 18-34 34-55 47-37 23-81 37-128 39l-8 0 0 0c-48 0-93-13-132-37-40-24-75-59-98-106-14-28-23-59-25-92-1-4-1-7-1-10l0-22 1-7z m362-44c0-3-2-5-4-5-3 0-5 2-5 5l0 154c0 3 2 5 5 5 2 0 4-2 4-5z m-19 7l-178 64 0 22 178 55z m-96 13c-1-3-3-5-6-6-2-2-5-2-8-1l-20 7c-6 2-9 8-7 14l3 11 41-15z m-92 47c0-2-2-4-4-4-3 0-5 2-5 4l0 29c0 3 2 5 5 5 2 0 4-2 4-5z m203 101c-7 0-13-4-14-10l-181-56c-2 5-7 9-12 9-8 0-15-7-15-15l0-29c0-8 7-14 15-14 5 0 10 3 12 8l38-13-4-10c-4-12 2-24 13-28l20-6c5-2 11-2 16 1 5 3 8 7 10 12l3 10 85-31c1-6 7-10 14-10 7 0 14 6 14 14l0 154c0 8-7 14-14 14z m-121-347l17 0c-97 0-181 54-224 133 2-5 5-10 7-14 53-81 134-114 200-119z m-238 238c0-5 0-10 1-15z"/>
<glyph glyph-name="avvisi-c-novita-s" unicode="&#57439;" d="M359 347c8 0 14-6 14-14l0-154c0-8-6-14-14-14-7 0-12 4-14 10l-84 31-3-10c-2-5-5-9-10-12-5-3-11-3-16-1l-20 6c-10 4-16 16-13 28l4 10-37 13c-3-5-7-8-13-8-8 0-14 6-14 14l0 29c0 8 6 15 14 15 6 0 11-4 13-9l179 56c2 6 7 10 14 10z m-359-91c0-141 115-256 256-256 141 0 256 115 256 256 0 141-115 256-256 256-141 0-256-115-256-256z m364-77l0 154c0 3-2 5-5 5-3 0-5-2-5-5l0-154c0-3 2-5 5-5 3 0 5 2 5 5z m-19 7l0 141-178-55 0-22z m-96 13l3 10-40 15-4-11c-2-6 1-12 7-14l20-7c3-1 6-1 9 1 2 1 4 3 5 6z m-91 47l0 29c0 3-2 5-5 5-3 0-5-2-5-5l0-29c0-2 2-4 5-4 3 0 5 2 5 4z"/>
<glyph glyph-name="avvisi-urgente" unicode="&#57440;" d="M244 321l24 0c2 0 3-1 3-3l0-150c0-2-1-4-3-4l-24 0c-2 0-4 2-4 4l0 150c0 2 2 3 4 3z m28-190l0-27c0-2-1-4-4-4l-25 0c-2 0-3 2-3 4l0 27c0 2 1 4 3 4l25 0c3 0 4-2 4-4z m-244-80l228 400 228-400z m482-3l-245 428c-4 7-14 7-18 0l-246-430c-1-3-1-7 0-10 2-3 6-5 9-5l492 0c0 0 0 0 0 0 5 0 10 4 10 10 0 3-1 5-2 7z"/>
<glyph glyph-name="avvisi-c-urgente-n" unicode="&#57441;" d="M20 256c0 130 106 236 236 236 130 0 236-106 236-236 0-130-106-236-236-236-130 0-236 106-236 236z m-18-33l1-5c2-11 4-24 7-35 4-11 8-22 13-33l5-10 4-7c43-79 127-133 224-133l17 0c1 0 8 1 16 2 8 1 16 3 22 4 11 2 23 6 34 10 4 1 9 3 14 5 2 2 5 3 8 4 4 2 8 4 11 6l2 1c29 14 55 37 76 64 12 16 23 33 32 52 9 19 15 37 18 53 2 8 3 16 4 24 1 4 2 9 2 14l0 34c0 2-1 9-2 13l0 1c-2 14-4 28-8 41-13 39-32 72-55 98-16 18-34 34-55 47-37 23-81 37-128 39l-8 0 0 0c-48 0-93-13-132-37-40-24-75-59-98-106-14-28-23-59-25-92-1-4-1-7-1-10l0-22 1-7z m150-60l104 181 104-181z m220-2l-112 195c-2 3-6 3-8 0l-112-195c-1-2-1-4 0-5 0-2 2-2 4-2l224 0c3 0 5 2 5 4 0 1 0 3-1 3z m-121 125c-1 0-2-1-2-2l0-68c0-1 1-2 2-2l10 0c1 0 2 1 2 2l0 68c0 1-1 2-2 2z m12-87c0 1 0 2-1 2l-12 0c-1 0-1-1-1-2l0-12c0-1 0-2 1-2l12 0c1 0 1 1 1 2z m-24-199l17 0c-97 0-181 54-224 133 2-5 5-10 7-14 53-81 134-114 200-119z m-238 238c0-5 0-10 1-15z"/>
<glyph glyph-name="avvisi-c-urgente-s" unicode="&#57442;" d="M372 161c1 0 1-2 1-3 0-2-2-4-5-4l-224 0c-2 0-4 0-4 2-1 1-1 3 0 5l112 195c2 3 6 3 8 0z m-372 95c0-141 115-256 256-256 141 0 256 115 256 256 0 141-115 256-256 256-141 0-256-115-256-256z m152-93l208 0-104 181z m99 123l10 0c1 0 2-1 2-2l0-68c0-1-1-2-2-2l-10 0c-1 0-2 1-2 2l0 68c0 1 1 2 2 2z m12-87l0-12c0-1 0-2-1-2l-12 0c-1 0-1 1-1 2l0 12c0 1 0 2 1 2l12 0c1 0 1-1 1-2z"/>
<glyph glyph-name="azioni-c-impostazioni-n" unicode="&#57443;" d="M20 256c0 130 106 236 236 236 130 0 236-106 236-236 0-130-106-236-236-236-130 0-236 106-236 236z m-18-33l1-5c2-11 4-24 7-35 4-11 8-22 13-33l5-10 4-7c43-79 127-133 224-133l17 0c1 0 8 1 16 2 8 1 16 3 22 4 11 2 23 6 34 10 4 1 9 3 14 5 2 2 5 3 8 4 4 2 8 4 11 6l2 1c29 14 55 37 76 64 12 16 23 33 32 52 9 19 15 37 18 53 2 8 3 16 4 24 1 4 2 9 2 14l0 34c0 2-1 9-2 13l0 1c-2 14-4 28-8 41-13 39-32 72-55 98-16 18-34 34-55 47-37 23-81 37-128 39l-8 0 0 0c-48 0-93-13-132-37-40-24-75-59-98-106-14-28-23-59-25-92-1-4-1-7-1-10l0-22 1-7z m270 205l-34 0c-9 0-9-12-10-17-1-7-2-15-4-23-1-4-2-9-3-13-8-3-23-11-24-11-2 0-39 27-45 27-1 0-4 0-6-2-4-3-25-21-25-29 0-8 27-42 27-45 0-2-8-17-11-25-9-2-20-2-28-5-9-2-22 1-25-13l0-31c0-1 2-7 5-8 3-2 9-3 14-4 9-1 18-3 26-5 3 0 8 0 9-3 4-6 11-22 11-24 0 0-28-40-28-44 0-2 0-4 2-5 7-8 15-16 23-24 2-2 5-3 7-3 2 0 3 0 5 2 14 8 38 25 40 25 1 0 20-4 24-11 8-14 6-32 9-47 1-2 4-5 7-6l36 0c2 0 6 3 7 6 3 13 5 26 7 38 1 4 0 8 4 10 3 2 7 2 11 4 4 2 10 6 12 6 1 0 38-27 44-27 4 0 5 1 9 4 5 5 23 21 23 28 0 4-27 44-27 44 0 2 5 19 11 25 3 4 8 2 12 3 11 3 25 3 37 8 2 1 3 3 4 5l0 37c0 4-8 7-8 7-16 2-32 4-46 9-5 1-4 9-6 13-2 4-5 10-5 12 0 2 26 39 26 45 0 1-1 4-2 5-4 5-22 26-30 26-6 0-41-27-44-27-2 0-11 6-16 8-3 1-7 1-9 4-1 3-1 6-2 9-2 14-2 25-7 38-2 4-5 4-7 4z m-8-17c2-15 4-29 7-43 0-1 3-6 6-7 4-3 9-4 14-5 2-1 17-11 22-11 7 0 34 21 43 27l13-13c-3-4-26-37-26-43 0-1 10-25 14-37 1-3 6-5 9-5 14-3 29-7 44-9l0-17c-17-3-33-4-47-10-2 0-3-2-4-3-2-4-3-10-5-15-2-4-9-17-9-23 0-6 25-42 25-43 0-1-7-8-12-13-1 1-36 26-43 26-6 0-13-5-18-7-4-2-7-4-11-4-4-1-12-4-13-10-3-15-6-30-8-45l-17 0c-3 15-6 31-9 45-1 3-4 7-7 8-5 1-12 3-16 6-5 2-13 7-19 7-7 0-42-25-42-26-4 4-13 12-13 13 0 1 26 37 26 43 0 6-8 16-9 20-2 5-3 9-4 14-2 9-13 9-18 11-11 2-23 3-34 6l0 17c10 2 21 3 32 6 5 1 15 0 18 9 2 5 3 11 5 15 2 6 9 15 9 20 0 7-25 42-26 44l12 12c2-1 37-26 43-26 5 0 17 7 21 9 7 3 19 3 21 11 1 5 2 10 3 15 2 10 4 20 6 31z m68-155c0 43-32 78-77 78-35 0-72-24-77-72l0-11c0-2 2-13 4-20 13-37 46-52 74-52 42 0 76 36 76 77z m-18 0c0-34-27-59-59-59-21 0-45 11-56 41-1 4-2 11-2 12l0 13c4 36 33 53 59 53 33 0 58-28 58-60z m-75-256l17 0c-97 0-181 54-224 133 2-5 5-10 7-14 53-81 134-114 200-119z m-238 238c0-5 0-10 1-15z"/>
<glyph glyph-name="azioni-c-impostazioni-s" unicode="&#57444;" d="M272 428c2 0 5 0 7-4 5-13 5-24 7-38 1-3 1-6 2-9 2-3 6-3 9-4 5-2 14-8 16-8 3 0 38 27 44 27 8 0 26-21 30-26 1-1 2-4 2-5 0-6-26-43-26-45 0-2 3-8 5-12 2-4 1-12 6-13 14-5 30-7 46-9 0 0 8-3 8-7l0-37c-1-2-2-4-4-5-12-5-26-5-37-8-4-1-9 1-12-3-6-6-11-23-11-25 0 0 27-40 27-44 0-7-18-23-23-28-4-3-5-4-9-4-6 0-43 27-44 27-2 0-8-4-12-6-4-2-8-2-11-4-4-2-3-6-4-10-2-12-4-25-7-38-1-3-5-6-7-6l-36 0c-3 1-6 4-7 6-3 15-1 33-9 47-4 7-23 11-24 11-2 0-26-17-40-25-2-2-3-2-5-2-2 0-5 1-7 3-8 8-16 16-23 24-2 1-2 3-2 5 0 4 28 44 28 44 0 2-7 18-11 24-1 3-6 3-9 3-8 2-17 4-26 5-5 1-11 2-14 4-3 1-5 7-5 8l0 31c3 14 16 11 25 13 8 3 19 3 28 5 3 8 11 23 11 25 0 3-27 37-27 45 0 8 21 26 25 29 2 2 5 2 6 2 6 0 43-27 45-27 1 0 16 8 24 11 1 4 2 9 3 13 2 8 3 16 4 23 1 5 1 17 10 17z m-272-172c0-141 115-256 256-256 141 0 256 115 256 256 0 141-115 256-256 256-141 0-256-115-256-256z m264 155l-17 0c-2-11-4-21-6-31-1-5-2-10-3-15-2-8-14-8-21-11-4-2-16-9-21-9-6 0-41 25-43 26l-12-12c1-2 26-37 26-44 0-5-7-14-9-20-2-4-3-10-5-15-3-9-13-8-18-9-11-3-22-4-32-6l0-17c11-3 23-4 34-6 5-2 16-2 18-11 1-5 2-9 4-14 1-4 9-14 9-20 0-6-26-42-26-43 0-1 9-9 13-13 0 1 35 26 42 26 6 0 14-5 19-7 4-3 11-5 16-6 3-1 6-5 7-8 3-14 6-30 9-45l17 0c2 15 5 30 8 45 1 6 9 9 13 10 4 0 7 2 11 4 5 2 12 7 18 7 7 0 42-25 43-26 5 5 12 12 12 13 0 1-25 37-25 43 0 6 7 19 9 23 2 5 3 11 5 15 1 1 2 3 4 3 14 6 30 7 47 10l0 17c-15 2-30 6-44 9-3 0-8 2-9 5-4 12-14 36-14 37 0 6 23 39 26 43l-13 13c-9-6-36-27-43-27-5 0-20 10-22 11-5 1-10 2-14 5-3 1-6 6-6 7-3 14-5 28-7 43z m68-155c0-41-34-77-76-77-28 0-61 15-74 52-2 7-4 18-4 20l0 11c5 48 42 72 77 72 45 0 77-35 77-78z m-18 0c0 32-25 60-58 60-26 0-55-17-59-53l0-13c0-1 1-8 2-12 11-30 35-41 56-41 32 0 59 25 59 59z"/>
<glyph glyph-name="archivio-estrattoconto" unicode="&#57445;" d="M227 216c2 6 8 8 13 7l87-29c5-2 8-8 6-13-1-4-5-7-10-7-1 0-2 0-3 1l-86 28c-5 2-8 8-7 13z m6 176c0 6 5 10 10 10 2 0 7 0 11-4 4-4 4-10 0-14-2-2-5-3-8-3-1 0-3 0-5 1-4 1-8 5-8 10z m-20-71c1 0 6 0 10-4 4-4 4-11 0-15-2-2-5-3-7-3-2 0-4 0-5 1-5 1-8 6-8 10 0 6 4 11 10 11z m82 55c1 6 7 9 13 8l86-24c5-1 8-7 7-13-1-4-5-7-10-7-1 0-2 0-3 0l-86 24c-5 1-9 7-7 12z m-35-80c2 5 8 8 13 7l86-29c6-2 9-8 7-13-2-4-6-7-10-7-1 0-2 0-3 0l-86 29c-6 2-8 8-7 13z m-69-55c4-4 4-11 0-15-2-2-4-3-7-3-2 0-4 1-5 2-5 1-8 5-8 10 0 5 4 10 10 10 2 0 6 0 10-4z m186-123c-27-73-44-91-62-96-19 2-34 10-45 22-26 32-20 85-20 86 1 4-2 9-6 11l-133 53 104 296 273-54c-15-45-72-213-111-318z m-304-12c0 0-1 0-1 0-3 1-63 21-50 102l207-84c-1-17 0-61 24-91-49 17-127 50-180 73z m438 343c-2 2-4 4-7 4l-294 59c-4 1-9-2-11-7l-107-303-73 30c-3 1-6 1-9-1-3-1-5-4-5-6-24-104 52-135 60-138 22-10 199-87 232-87 6 0 13 0 19 1 1 0 3 0 5 0 4 0 7 2 9 5 22 10 41 37 67 105 44 122 114 327 114 329 1 3 1 6 0 9z"/>
<glyph glyph-name="archivio-c-estrattoconto-n" unicode="&#57446;" d="M20 256c0 130 106 236 236 236 130 0 236-106 236-236 0-130-106-236-236-236-130 0-236 106-236 236z m-18-33l1-5c2-11 4-24 7-35 4-11 8-22 13-33l5-10 4-7c43-79 127-133 224-133l17 0c1 0 8 1 16 2 8 1 16 3 22 4 11 2 23 6 34 10 4 1 9 3 14 5 2 2 5 3 8 4 4 2 8 4 11 6l2 1c29 14 55 37 76 64 12 16 23 33 32 52 9 19 15 37 18 53 2 8 3 16 4 24 1 4 2 9 2 14l0 34c0 2-1 9-2 13l0 1c-2 14-4 28-8 41-13 39-32 72-55 98-16 18-34 34-55 47-37 23-81 37-128 39l-8 0 0 0c-48 0-93-13-132-37-40-24-75-59-98-106-14-28-23-59-25-92-1-4-1-7-1-10l0-22 1-7z m316-39c-13-34-21-42-29-44-9 1-15 4-20 10-13 15-10 39-9 39 0 2-1 5-3 5l-61 25 47 136 126-25c-7-20-33-98-51-146z m-140-6l0 0c-2 1-29 10-23 47l95-38c-1-8 0-28 11-42-23 8-59 23-83 33z m201 158c-1 1-2 2-3 2l-135 27c-2 0-4-1-5-3l-49-139-34 13c-1 1-3 1-4 0-1-1-2-2-2-3-11-48 24-62 27-63 10-5 92-40 107-40 3 0 6 0 8 0 1 0 2 0 3 0 2 0 3 1 4 2 10 5 19 17 31 49 20 56 52 150 52 151 1 1 1 3 0 4z m-130-107c-1-2 0-5 3-6l40-13c0 0 1 0 1 0 2 0 4 1 4 3 1 2 0 5-3 6l-39 13c-3 1-5 0-6-3z m3 81c0-2 1-4 3-5 1 0 2 0 3 0 1 0 2 0 3 1 2 2 2 5 0 7-2 2-4 2-5 2-2 0-4-2-4-5z m-10-33c-2 0-4-2-4-5-1-2 1-4 3-4 1-1 2-1 3-1 1 0 2 1 3 2 2 1 2 4 0 6-2 2-4 2-5 2z m38 26c-1-3 1-5 3-6l40-11c0 0 1 0 1 0 2 0 4 1 5 3 0 3-1 5-4 6l-39 11c-3 1-5-1-6-3z m-16-37c-1-3 1-5 3-6l40-13c0 0 1-1 1-1 2 0 4 2 5 4 0 2-1 5-3 6l-40 13c-2 1-5-1-6-3z m-32-26c-2 2-4 2-4 2-3 0-5-2-5-4 0-3 2-5 4-5 0 0 1-1 2-1 1 0 2 1 3 2 2 2 2 4 0 6z m7-240l17 0c-97 0-181 54-224 133 2-5 5-10 7-14 53-81 134-114 200-119z m-238 238c0-5 0-10 1-15z"/>
<glyph glyph-name="archivio-c-estrattoconto-s" unicode="&#57447;" d="M380 337c0-1 1-3 0-4 0-1-32-95-52-151-12-31-21-43-31-48-1-1-2-2-4-2-1 0-2 0-2 0-3 0-6 0-9 0-15 0-96 35-106 39-4 2-39 16-28 63 1 2 2 3 3 3 1 1 2 1 4 1l33-14 49 139c1 2 3 3 6 3l134-27c1 0 2-1 3-2z m-380-81c0-141 115-256 256-256 141 0 256 115 256 256 0 141-115 256-256 256-141 0-256-115-256-256z m319-70c17 48 44 125 50 145l-124 25-48-136 61-24c2-1 3-3 3-5 0 0-3-25 9-39 5-6 12-9 20-10 8 2 16 10 29 44z m-69 45c1 2 4 3 6 2l40-13c2 0 3-3 3-6-1-2-3-3-5-3 0 0-1 0-1 0l-40 14c-2 0-4 3-3 6z m3 80c0 3 2 5 5 5 0 0 2 0 4-2 2-2 2-5 0-7-1-1-2-1-3-1-1 0-2 0-2 0-2 1-4 3-4 5z m-10-33c1 0 3 0 5-2 2-1 2-4 0-6-1-1-2-2-3-2-1 0-2 1-2 1-3 0-4 2-4 5 0 2 2 4 4 4z m38 26c1 2 3 4 6 3l39-11c3 0 4-3 4-5-1-3-3-4-5-4 0 0-1 0-1 0l-40 11c-2 1-4 3-3 6z m-16-37c1 2 4 4 6 3l40-13c2-1 3-4 3-6-1-2-3-3-5-3 0 0-1 0-1 0l-40 13c-2 1-4 4-3 6z m-31-25c1-2 1-5 0-7-1-1-2-1-4-1 0 0-1 0-2 0-2 1-4 3-4 5 0 2 2 5 5 5 1 0 3 0 5-2z m-54-62c24-11 59-25 82-33-11 14-11 33-11 42l-94 38c-6-37 21-46 22-47z"/>
<glyph glyph-name="archivio-variazionevontratto" unicode="&#57448;" d="M300 36l-29 29 0 1 153 157 30-31z m174 209c-16 16-42 16-58 0l-7-7 1-1-155-158c-1-1-2-3-3-5l-17-61c-1-4 0-7 3-10 2-2 4-3 7-3 1 0 2 0 3 0l60 17c1 0 3 1 4 2l158 161c1 1 2 2 3 4l1 1c16 17 16 43 0 60z m-228 232l106-108-106 0z m120-129l0-112c0-6 5-11 10-11 6 0 10 5 10 11l0 127-146 149-214 0 0-492 170 0c5 0 10 5 10 11 0 5-5 10-10 10l-150 0 0 451 180 0 0-144z"/>
<glyph glyph-name="archivio-c-variazionevontratto-n" unicode="&#57449;" d="M20 256c0 130 106 236 236 236 130 0 236-106 236-236 0-130-106-236-236-236-130 0-236 106-236 236z m-18-33l1-5c2-11 4-24 7-35 4-11 8-22 13-33l5-10 4-7c43-79 127-133 224-133l17 0c1 0 8 1 16 2 8 1 16 3 22 4 11 2 23 6 34 10 4 1 9 3 14 5 2 2 5 3 8 4 4 2 8 4 11 6l2 1c29 14 55 37 76 64 12 16 23 33 32 52 9 19 15 37 18 53 2 8 3 16 4 24 1 4 2 9 2 14l0 34c0 2-1 9-2 13l0 1c-2 14-4 28-8 41-13 39-32 72-55 98-16 18-34 34-55 47-37 23-81 37-128 39l-8 0 0 0c-48 0-93-13-132-37-40-24-75-59-98-106-14-28-23-59-25-92-1-4-1-7-1-10l0-22 1-7z m280-77l-13 14 0 0 71 72 14-14z m81 96c-7 8-19 8-27 0l-3-3 0 0-71-73c-1-1-1-1-2-2l-7-28c-1-2 0-4 1-5 1-1 2-1 3-1 0 0 1 0 1 0l28 7c1 1 1 1 2 2l73 74c1 0 1 1 1 1l1 1c8 7 8 20 0 27z m-106 107l49-50-49 0z m56-59l0-52c0-3 2-5 5-5 2 0 4 2 4 5l0 58-67 69-100 0 0-226 79 0c3 0 5 2 5 5 0 2-2 5-5 5l-69 0 0 207 83 0 0-66z m-74-290l17 0c-97 0-181 54-224 133 2-5 5-10 7-14 53-81 134-114 200-119z m-238 238c0-5 0-10 1-15z"/>
<glyph glyph-name="archivio-c-variazionevontratto-s" unicode="&#57450;" d="M364 244c7-8 7-20 0-28l-1 0c0-1-1-2-1-2l-73-73c0-1-1-1-2-2l-28-7c0 0 0 0-1 0-1 0-2 0-3 1-1 1-2 3-1 5l8 28c0 0 0 1 1 2l71 72 0 0 3 4c7 7 19 7 27 0z m-50 47l-65 0 0 65-83 0 0-206 70 0c2 0 4-2 4-4 0-3-2-5-4-5l-79 0 0 225 99 0 67-69 0-58c0-2-2-4-4-4-3 0-5 2-5 4z m-314-35c0-141 115-256 256-256 141 0 256 115 256 256 0 141-115 256-256 256-141 0-256-115-256-256z m284-108l70 71-13 14-71-71 0-1z m-25 202l0-50 49 0z"/>
<glyph glyph-name="comuni-pdf" unicode="&#57452;" d="M297 512l-226 0c-3 1-10-5-10-8l0-496c0-1 6-6 9-8l372 0c3 0 7 6 9 8l0 353c0 5-64 65-65 66-19 20-42 41-62 62-8 8-18 20-27 23z m120-146l-111 0 0 112z m-131 125l0 0 0-136c0-1 5-7 8-8l136 0 0-326-348 0 0 470z m26-230l0-118 19 0 0 51 28 0 0 15-28 0 0 35 30 0 0 17z m-63-103l0 88c2 0 4 0 5 0 17 0 24-15 24-42 0-36-12-46-24-46-2 0-3 0-5 0z m-18 101l0-116c4 0 10-1 17-1 15 0 26 4 34 12 9 9 15 25 15 50 0 23-6 39-15 47-7 7-17 10-31 10-8 0-15-1-20-2z m-57-55l0 41c1 1 4 1 6 1 13 0 17-9 17-20 0-14-6-22-19-22-2 0-3 0-4 0z m-19 55l0-116 19 0 0 46c2 0 3 0 5 0 10 0 21 4 28 12 6 6 9 14 9 26 0 10-3 19-9 25-7 7-17 9-30 9-8 0-16-1-22-2z"/>
<glyph glyph-name="comuni-c-pdf-n" unicode="&#57453;" d="M20 256c0 130 106 236 236 236 130 0 236-106 236-236 0-130-106-236-236-236-130 0-236 106-236 236z m-18-33l1-5c2-11 4-24 7-35 4-11 8-22 13-33l5-10 4-7c43-79 127-133 224-133l17 0c1 0 8 1 16 2 8 1 16 3 22 4 11 2 23 6 34 10 4 1 9 3 14 5 2 2 5 3 8 4 4 2 8 4 11 6l2 1c29 14 55 37 76 64 12 16 23 33 32 52 9 19 15 37 18 53 2 8 3 16 4 24 1 4 2 9 2 14l0 34c0 2-1 9-2 13l0 1c-2 14-4 28-8 41-13 39-32 72-55 98-16 18-34 34-55 47-37 23-81 37-128 39l-8 0 0 0c-48 0-93-13-132-37-40-24-75-59-98-106-14-28-23-59-25-92-1-4-1-7-1-10l0-22 1-7z m270 162l0 0 0-75c0 0 3-3 5-4l73 0 0-180-188 0 0 259z m71-68l-60 0 0 61z m-65 80l-122 0c-1 0-5-3-5-5l0-272c0-1 3-4 5-5l200 0c2 0 4 4 5 5l0 194c0 2-34 36-35 36-10 11-22 23-33 34-5 5-10 11-15 13z m-76-139l0-64 10 0 0 25c1 0 1 0 3 0 5 0 11 2 15 7 3 3 4 8 4 14 0 6-1 11-5 14-3 4-9 5-16 5-4 0-8-1-11-1z m10-30l0 22c1 0 2 0 3 0 7 0 9-5 9-11 0-7-3-12-10-12-1 0-2 0-2 1z m30 30l0-64c3 0 6-1 10-1 8 0 14 3 18 7 5 5 8 13 8 27 0 13-3 22-8 26-4 4-9 6-16 6-5 0-9-1-12-1z m10-56l0 48c1 0 2 1 3 1 9 0 13-9 13-24 0-19-6-25-13-25-1 0-2 0-3 0z m34 57l0-65 11 0 0 28 14 0 0 8-14 0 0 20 16 0 0 9z m-47-259l17 0c-97 0-181 54-224 133 2-5 5-10 7-14 53-81 134-114 200-119z m-238 238c0-5 0-10 1-15z"/>
<glyph glyph-name="comuni-c-pdf-s" unicode="&#57454;" d="M278 397c5-2 10-8 15-13 11-11 23-23 33-34 1 0 35-34 35-36l0-194c-1-1-3-5-5-5l-200 0c-2 1-5 4-5 5l0 272c0 2 4 5 5 5z m-276-174l1-5c2-11 4-24 7-35 4-11 8-22 13-33l5-10 4-7c43-79 127-133 224-133l17 0c1 0 8 1 16 2 8 1 16 3 22 4 11 2 23 6 34 10 4 1 9 3 14 5 2 2 5 3 8 4 4 2 8 4 11 6l2 1c29 14 55 37 76 64 12 16 23 33 32 52 9 19 15 37 18 53 2 8 3 16 4 24 1 4 2 9 2 14l0 34c0 2-1 9-2 13l0 1c-2 14-4 28-8 41-13 39-32 72-55 98-16 18-34 34-55 47-37 23-81 37-128 39l-8 0 0 0c-48 0-93-13-132-37-40-24-75-59-98-106-14-28-23-59-25-92-1-4-1-7-1-10l0-22 1-7z m270 162l-110 0 0-259 188 0 0 180-73 0c-2 1-5 4-5 4l0 75z m-70-127c3 0 7 1 11 1 7 0 13-1 16-5 4-3 5-8 5-14 0-6-1-11-4-14-4-5-10-7-15-7-2 0-2 0-3 0l0-25-10 0z m40 0c3 0 7 1 12 1 7 0 12-2 16-6 5-4 8-13 8-26 0-14-3-22-8-27-4-4-10-7-18-7-4 0-7 1-10 1z m44 1l27 0 0-9-16 0 0-20 14 0 0-8-14 0 0-28-11 0z m-74-31c0-1 1-1 2-1 7 0 10 5 10 12 0 6-2 11-9 11-1 0-2 0-3 0z m40-26c1 0 2 0 3 0 7 0 13 6 13 25 0 15-4 24-13 24-1 0-2-1-3-1z m91 115l-60 61 0-61z m-311-184c2-5 5-10 7-14 53-81 134-114 200-119l17 0c-97 0-181 54-224 133z m-31 105c0-5 0-10 1-15z"/>
<glyph glyph-name="vorrei-miinteressa" unicode="&#57455;" d="M256 139c-111 0-206 91-231 117 16 16 58 58 115 87-8-17-12-36-12-55 0-70 57-128 128-128 71 0 128 58 128 128 0 19-4 38-12 55 57-29 99-71 115-87-25-26-120-117-231-117z m-80 219c25 9 52 15 80 15 28 0 55-6 80-15 17-19 27-44 27-70 0-59-48-106-107-106-59 0-107 47-107 106 0 26 10 51 27 70z m333-95c-4 5-114 131-253 131-139 0-249-126-253-131-4-4-4-10 0-14 4-5 114-131 253-131 139 0 249 126 253 131 4 4 4 10 0 14z m-306 25c0-29 24-53 53-53 29 0 53 24 53 53 0 29-24 53-53 53-29 0-53-24-53-53z"/>
<glyph glyph-name="vorrei-c-miinteressa-n" unicode="&#57456;" d="M20 256c0 130 106 236 236 236 130 0 236-106 236-236 0-130-106-236-236-236-130 0-236 106-236 236z m-18-33l1-5c2-11 4-24 7-35 4-11 8-22 13-33l5-10 4-7c43-79 127-133 224-133l17 0c1 0 8 1 16 2 8 1 16 3 22 4 11 2 23 6 34 10 4 1 9 3 14 5 2 2 5 3 8 4 4 2 8 4 11 6l2 1c29 14 55 37 76 64 12 16 23 33 32 52 9 19 15 37 18 53 2 8 3 16 4 24 1 4 2 9 2 14l0 34c0 2-1 9-2 13l0 1c-2 14-4 28-8 41-13 39-32 72-55 98-16 18-34 34-55 47-37 23-81 37-128 39l-8 0 0 0c-48 0-93-13-132-37-40-24-75-59-98-106-14-28-23-59-25-92-1-4-1-7-1-10l0-22 1-7z m285 106c-23 5-17 4-33 4-30 0-57-8-88-27-13-7-30-19-42-32-10-9-14-9-14-17 0-2 0-4 1-6 16-18 36-32 53-42 11-8 23-14 34-18 6-2 14-6 22-7 14-3 17-4 21-4 3 0 6 0 14 0 37 0 71 13 109 41 4 4 35 26 35 36 0 12-50 45-53 48-13 8-28 14-39 19-7 2-14 4-20 5z m11-22c5-3 6-9 8-13 2-5 4-14 4-20 0-32-27-53-55-53-2 0-10 1-14 2-23 2-42 30-42 44l0 13c1 9 5 19 12 27 1 1 3 1 5 2 13 3 26 6 38 6 11 0 37-3 44-8z m-118-33c0-43 38-73 74-73 40 0 76 32 76 73 0 2-2 14-4 20 16-9 34-20 52-37-39-37-84-59-124-59-40 0-86 23-123 59 17 17 35 28 52 38-2-6-3-15-3-21z m104-1c0 16-13 29-30 29-16 0-29-13-29-29 0-15 13-28 29-28 17 0 30 13 30 28z m-45-273l17 0c-97 0-181 54-224 133 2-5 5-10 7-14 53-81 134-114 200-119z m-238 238c0-5 0-10 1-15z"/>
<glyph glyph-name="vorrei-c-miinteressa-s" unicode="&#57457;" d="M287 329c6-1 13-3 20-5 11-5 26-11 39-19 3-3 53-36 53-48 0-10-31-32-35-36-38-28-72-41-109-41-8 0-11 0-14 0-4 0-7 1-21 4-8 1-16 5-22 7-11 4-23 10-34 18-17 10-37 24-53 42-1 2-1 4-1 6 0 8 4 8 14 17 12 13 29 25 42 32 31 19 58 27 88 27 16 0 10 1 33-4z m-285-106l1-5c2-11 4-24 7-35 4-11 8-22 13-33l5-10 4-7c43-79 127-133 224-133l17 0c1 0 8 1 16 2 8 1 16 3 22 4 11 2 23 6 34 10 4 1 9 3 14 5 2 2 5 3 8 4 4 2 8 4 11 6l2 1c29 14 55 37 76 64 12 16 23 33 32 52 9 19 15 37 18 53 2 8 3 16 4 24 1 4 2 9 2 14l0 34c0 2-1 9-2 13l0 1c-2 14-4 28-8 41-13 39-32 72-55 98-16 18-34 34-55 47-37 23-81 37-128 39l-8 0 0 0c-48 0-93-13-132-37-40-24-75-59-98-106-14-28-23-59-25-92-1-4-1-7-1-10l0-22 1-7z m296 84c-7 5-33 8-44 8-12 0-25-3-38-6-2-1-4-1-5-2-7-8-11-18-12-27l0-13c0-14 19-42 42-44 4-1 12-2 14-2 28 0 55 21 55 53 0 6-2 15-4 20-2 4-3 10-8 13z m-14-34c0-15-13-28-30-28-16 0-29 13-29 28 0 16 13 29 29 29 17 0 30-13 30-29z m-104 1c0 6 1 15 3 21-17-10-35-21-52-38 37-36 83-59 123-59 40 0 85 22 124 59-18 17-36 28-52 37 2-6 4-18 4-20 0-41-36-73-76-73-36 0-74 30-74 73z m-148-141c2-5 5-10 7-14 53-81 134-114 200-119l17 0c-97 0-181 54-224 133z m-31 105c0-5 0-10 1-15z"/>
<glyph glyph-name="vorrei-investimenti" unicode="&#57458;" d="M333 16l-154 0 0 289 155 0z m-133 21l113 0 0 248-113 0z m-45-21l-155 0 0 166 155 0z m-135 21l114 0 0 125-114 0z m492-21l-155 0 0 435 155 0z m-134 21l114 0 0 393-114 0z m-156 337c-6 0-10 4-10 10l0 90-90 0c-6 0-10 4-10 10 0 6 4 11 10 11l110 0 0-111c0-5-4-10-10-10z m-212-112c-3 0-5 1-7 3-4 4-4 10 0 15l201 201c4 4 10 4 14 0 4-4 4-10 0-14l-201-202c-2-2-4-3-7-3z"/>
<glyph glyph-name="vorrei-c-investimenti-n" unicode="&#57459;" d="M20 256c0 130 106 236 236 236 130 0 236-106 236-236 0-130-106-236-236-236-130 0-236 106-236 236z m-18-33l1-5c2-11 4-24 7-35 4-11 8-22 13-33l5-10 4-7c43-79 127-133 224-133l17 0c1 0 8 1 16 2 8 1 16 3 22 4 11 2 23 6 34 10 4 1 9 3 14 5 2 2 5 3 8 4 4 2 8 4 11 6l2 1c29 14 55 37 76 64 12 16 23 33 32 52 9 19 15 37 18 53 2 8 3 16 4 24 1 4 2 9 2 14l0 34c0 2-1 9-2 13l0 1c-2 14-4 28-8 41-13 39-32 72-55 98-16 18-34 34-55 47-37 23-81 37-128 39l-8 0 0 0c-48 0-93-13-132-37-40-24-75-59-98-106-14-28-23-59-25-92-1-4-1-7-1-10l0-22 1-7z m238 89c3 0 5 2 5 5l0 52-52 0c-3 0-5-2-5-5 0-3 2-5 5-5l35 0-91-92c-2-2-2-4 0-6 1-1 2-2 3-2 2 0 3 1 4 2l91 92 0-36c0-3 2-5 5-5z m73-159l0 185 54 0 0-185z m63-10l0 205-72 0 0-205z m-231 10l0 59 54 0 0-59z m63-10l0 78-72 0 0-78z m22 10l0 117 53 0 0-117z m62-10l1 136-73 0 0-136z m-53-143l17 0c-97 0-181 54-224 133 2-5 5-10 7-14 53-81 134-114 200-119z m-238 238c0-5 0-10 1-15z"/>
<glyph glyph-name="vorrei-c-investimenti-s" unicode="&#57460;" d="M292 143l-72 0 0 136 73 0z m-84 0l-72 0 0 78 72 0z m168 0l-72 0 0 205 72 0z m-236 116c-1 0-2 1-3 2-2 2-2 4 0 6l91 92-35 0c-3 0-5 2-5 5 0 3 2 5 5 5l52 0 0-52c0-3-2-5-5-5-3 0-5 2-5 5l0 36-91-92c-1-1-2-2-4-2z m-140-3c0-141 115-256 256-256 141 0 256 115 256 256 0 141-115 256-256 256-141 0-256-115-256-256z m230-103l53 0 0 117-53 0z m-85 0l54 0 0 59-54 0z m168 0l54 0 0 185-54 0z"/>
<glyph glyph-name="vorrei-assicurazioni" unicode="&#57461;" d="M266 478l0 19c0 5-5 10-10 10-5 0-10-4-10-10l0-18c-131-5-238-96-246-213l26 0c10 24 39 40 71 40 33 0 62-16 72-40l19 0c10 20 32 35 58 39l0-252c0-14-12-25-26-25-14 0-25 11-25 24l-21 0c0-25 22-47 47-47 26 0 47 22 47 47-1 2-1 3-2 4l0 249c27-3 49-18 60-39l19 0c10 24 40 40 72 40 33 0 61-16 71-40l24 0c-8 117-115 208-246 212z m149-152c-34 0-64-15-82-37-18 21-45 35-78 36-32-1-60-15-78-36-17 22-48 37-82 37-26 0-52-10-69-25 27 90 119 158 230 158 111 0 203-66 228-156-17 14-42 23-69 23z"/>
<glyph glyph-name="vorrei-c-assicurazioni-n" unicode="&#57462;" d="M20 256c0 130 106 236 236 236 130 0 236-106 236-236 0-130-106-236-236-236-130 0-236 106-236 236z m-18-33l1-5c2-11 4-24 7-35 4-11 8-22 13-33l5-10 4-7c43-79 127-133 224-133l17 0c1 0 8 1 16 2 8 1 16 3 22 4 11 2 23 6 34 10 4 1 9 3 14 5 2 2 5 3 8 4 4 2 8 4 11 6l2 1c29 14 55 37 76 64 12 16 23 33 32 52 9 19 15 37 18 53 2 8 3 16 4 24 1 4 2 9 2 14l0 34c0 2-1 9-2 13l0 1c-2 14-4 28-8 41-13 39-32 72-55 98-16 18-34 34-55 47-37 23-81 37-128 39l-8 0 0 0c-48 0-93-13-132-37-40-24-75-59-98-106-14-28-23-59-25-92-1-4-1-7-1-10l0-22 1-7z m332 67c-17 0-31-7-40-18-9 11-22 17-38 18-16-1-30-7-39-18-8 11-23 18-40 18-13 0-25-4-34-12 14 44 59 77 113 77 54 0 99-32 112-76-9 7-21 11-34 11z m-73 75l0 9c0 2-2 5-5 5-3 0-5-2-5-5l0-9c-64-2-116-47-120-104l12 0c5 12 19 20 35 20 16 0 30-8 35-20l10 0c4 10 15 17 28 19l0-123c0-7-6-13-13-13-7 0-12 6-12 12l-10 0c0-12 10-23 23-23 12 0 22 11 22 23 0 2 0 124 0 124 13-1 24-9 29-19l10 0c5 12 19 20 35 20 16 0 30-8 35-20l11 0c-4 57-56 102-120 104z m-22-365l17 0c-97 0-181 54-224 133 2-5 5-10 7-14 53-81 134-114 200-119z m-238 238c0-5 0-10 1-15z"/>
<glyph glyph-name="vorrei-c-assicurazioni-s" unicode="&#57463;" d="M261 365c64-2 116-47 120-104l-11 0c-5 12-19 20-35 20-16 0-30-8-35-20l-10 0c-5 10-16 18-29 19 0 0 0-123 0-124 0-12-10-23-22-23-13 0-23 11-23 23l10 0c0-6 5-12 12-12 7 0 13 6 13 13l0 123c-13-2-24-9-28-19l-10 0c-5 12-19 20-35 20-16 0-30-8-35-20l-12 0c4 57 56 102 120 104l0 9c0 3 2 5 5 5 3 0 5-3 5-5z m-261-109c0-141 115-256 256-256 141 0 256 115 256 256 0 141-115 256-256 256-141 0-256-115-256-256z m334 34c13 0 25-4 34-11-13 44-58 76-112 76-54 0-99-33-113-77 9 8 21 12 34 12 17 0 32-7 40-18 9 11 23 17 39 18 16-1 29-7 38-18 9 11 23 18 40 18z"/>
<glyph glyph-name="vorrei-carte" unicode="&#57464;" d="M467 191l-192 0c11 5 22 11 33 18 16 12 27 28 30 44 2 13-1 25-9 35-22 28-65 6-85-5l-60-27 0 67 307 0 0-108c0-13-10-24-24-24z m-122-54c-7-6-14-8-21-6-4 1-5 8-4 22 1 6 2 13 3 17l34 0c-1-15-6-26-12-33z m-50-11c-10-9-17-10-27-6-9 2-9 15-8 22 1 8 3 21 3 28l39 0c-1-4-2-10-2-15-1-5-2-14 0-22-2-3-4-6-5-7z m-55 20c0-1-1-2-1-3 0 0-1-1-1-1-14-16-25-15-33-12-2 0-4 4-4 8 9 6 16 14 23 21 4 4 7 8 11 11l8 0c-1-7-2-18-3-24z m-29 248l253 0c14 0 27-13 27-26l0-4-307 0 0 3c0 10 11 27 27 27z m253 21l-253 0c-18 0-32-11-40-24-25 10-41-5-54-17-3-3-6-5-9-8-19-16-103-75-104-75-4-4-5-10-2-14 2-3 5-5 8-5 2 0 4 1 6 2 4 3 86 60 105 76 3 3 7 6 10 9 13 13 20 19 33 13 0-2 0-3 0-5l0-121-14-6c-6-3-8-9-5-14 2-5 8-7 13-5l95 44c33 17 52 21 59 11 5-6 6-13 5-20-1-11-9-21-21-30-24-17-60-29-61-29l-2-1-1-1c-9-7-16-15-23-22-20-21-35-37-88-37l-111-6c-6-1-10-5-10-11 0-6 5-10 11-10l111 7c27 0 46 4 61 11 2-8 8-14 16-17 11-3 27-4 43 8 4-8 10-14 19-18 6-2 11-3 16-3 14 0 24 7 32 14 0 1 1 2 2 3 2-1 5-2 8-3 14-4 29 0 40 12 11 10 17 26 19 47l89 0c25 0 45 21 45 45l0 153c0 25-23 47-48 47z"/>
<glyph glyph-name="vorrei-c-carte-n" unicode="&#57465;" d="M20 256c0 130 106 236 236 236 130 0 236-106 236-236 0-130-106-236-236-236-130 0-236 106-236 236z m-18-33l1-5c2-11 4-24 7-35 4-11 8-22 13-33l5-10 4-7c43-79 127-133 224-133l17 0c1 0 8 1 16 2 8 1 16 3 22 4 11 2 23 6 34 10 4 1 9 3 14 5 2 2 5 3 8 4 4 2 8 4 11 6l2 1c29 14 55 37 76 64 12 16 23 33 32 52 9 19 15 37 18 53 2 8 3 16 4 24 1 4 2 9 2 14l0 34c0 2-1 9-2 13l0 1c-2 14-4 28-8 41-13 39-32 72-55 98-16 18-34 34-55 47-37 23-81 37-128 39l-8 0 0 0c-48 0-93-13-132-37-40-24-75-59-98-106-14-28-23-59-25-92-1-4-1-7-1-10l0-22 1-7z m358 3l-88 0c5 2 10 5 15 9 8 5 12 12 14 20 1 5-1 11-4 16-10 13-30 2-39-3l-27-12 0 31 140 0 0-50c0-6-5-11-11-11z m-56-25c-3-3-6-4-10-3-1 1-2 4-1 10 0 3 0 6 1 9l16 0c-1-7-3-13-6-16z m-23-5c-4-4-7-5-12-3-4 1-5 7-4 10 1 4 1 10 2 14l17 0c0-3 0-5-1-8 0-2 0-6 0-10-1-1-2-2-2-3z m-25 9l0-1c-1 0-1 0-1-1-6-7-11-6-15-5-1 0-2 2-2 3 4 4 7 7 11 10 1 2 3 4 5 6l3 0c0-4-1-9-1-12z m-13 115l116 0c6 0 12-6 12-12l0-2-140 0 0 1c0 5 4 13 12 13z m116 9l-116 0c-9 0-15-5-19-11-11 5-18-2-24-8-2-1-3-2-4-3-9-8-47-35-48-35-2-1-2-4-1-7 1-1 3-2 4-2 1 0 2 1 3 1 1 1 39 28 48 36 1 1 3 2 4 3 6 6 10 9 15 6 0 0 0-1 0-2l0-56-6-3c-3-1-4-3-3-6 1-2 4-3 7-2l43 20c15 8 24 10 27 5 2-3 3-6 2-9 0-5-4-10-9-14-12-8-28-13-28-13l-1 0-1-1c-4-4-7-7-10-10-10-10-16-17-40-17l-51-3c-3 0-5-3-5-5 0-3 3-5 5-5l51 3c12 0 21 2 28 5 1-3 4-6 7-7 5-2 13-2 20 3 2-3 4-6 8-8 3-1 6-1 8-1 6 0 11 3 14 6 1 1 1 1 2 2 1-1 2-2 3-2 7-2 13 0 19 6 4 4 7 12 8 22l41 0c11 0 20 9 20 20l0 71c0 11-10 21-21 21z m-120-329l17 0c-97 0-181 54-224 133 2-5 5-10 7-14 53-81 134-114 200-119z m-238 238c0-5 0-10 1-15z"/>
<glyph glyph-name="vorrei-c-carte-s" unicode="&#57466;" d="M359 329c11 0 21-10 21-21l0-71c0-11-9-20-20-20l-41 0c-1-10-4-18-8-22-6-6-12-8-19-6-1 0-2 1-3 2-1-1-1-1-2-2-3-3-8-6-14-6-2 0-5 0-8 1-4 2-6 5-8 8-7-5-15-5-20-3-3 1-6 4-7 7-7-3-16-5-28-5l-51-3c-2 0-5 2-5 5 0 2 2 5 5 5l51 3c24 0 30 7 40 17 3 3 6 6 10 10l1 1 1 0c0 0 16 5 28 13 5 4 9 9 9 14 1 3 0 6-2 9-3 5-12 3-27-5l-43-20c-3-1-6 0-7 2-1 3 0 5 3 6l6 3 0 56c0 1 0 2 0 2-5 3-9 0-15-6-1-1-3-2-4-3-9-8-47-35-48-36-1 0-2-1-3-1-1 0-3 1-4 2-1 3-1 6 1 7 1 0 39 27 48 35 1 1 2 2 4 3 6 6 13 13 24 8 4 6 10 11 19 11z m-359-73c0-141 115-256 256-256 141 0 256 115 256 256 0 141-115 256-256 256-141 0-256-115-256-256z m360-30c6 0 11 5 11 11l0 50-140 0 0-31 27 12c9 5 29 16 39 3 3-5 5-11 4-16-2-8-6-15-14-20-5-4-10-7-15-9z m-56-25c3 3 5 9 6 16l-16 0c-1-3-1-6-1-9-1-6 0-9 1-10 4-1 7 0 10 3z m-23-5c0 1 1 2 2 3 0 4 0 8 0 10 1 3 1 5 1 8l-17 0c-1-4-1-10-2-14-1-3 0-9 4-10 5-2 8-1 12 3z m-25 9c0 3 1 8 1 12l-3 0c-2-2-4-4-5-6-4-3-7-6-11-10 0-1 1-3 2-3 4-1 9-2 15 5 0 1 0 1 1 1z m-13 115c-8 0-12-8-12-13l0-1 140 0 0 2c0 6-6 12-12 12z"/>
<glyph glyph-name="vorrei-finanziamentib" unicode="&#57467;" d="M281 69c-5-5-10-7-17-5-3 0-4 7-3 18 1 5 2 11 2 15l29 0c-2-13-5-22-11-28z m-40-9c-8-8-14-9-23-6-6 3-7 13-6 19 1 7 2 18 3 24l31 0c0-4-1-9-1-13-1-4-2-11 0-19-2-2-4-5-4-5z m-45 16l-1-2c0 0-1-1-1-1-11-13-20-12-27-10-1 0-3 3-3 7 7 5 13 11 19 17 3 4 6 7 9 10l6 0c0-6-1-15-2-21z m280 35c1 3 3 6 4 8 0 2 1 5 2 6 1 0 4 2 7 3 2 0 4 1 6 2l0-19z m-324 267c-3-7-4-13-4-18-1-4-2-8-2-10-1-2-6-5-10-8-3-2-8-6-12-9l-9 35z m46-81c-4-5-7-11-9-16-1-4-3-8-4-9-2-1-7-3-11-5-5-2-10-4-14-6l0 36z m44 17c-2 15 0 31 7 44 7 15 19 25 34 29 15 4 31 1 45-8 14-9 25-24 29-42 3-7 3-15 3-23z m129 123c14 4 21-4 30-16 4-4 7-9 12-11 5-3 11-4 18-4 13-2 22-3 24-10l22-82-52 0 0 0-48 0c0 9-1 19-3 28-6 21-19 40-37 51-18 12-38 16-58 11-20-6-36-19-45-39-8-15-11-33-9-51l-82 0 0-29c-1-2-2-3-3-5l-2 1-8 28c-1 7 6 12 16 20 6 4 11 8 14 13 3 4 3 9 4 15 2 15 5 26 19 29z m77-17c-5 1-10 2-15 2-4 1-10 1-12 3-1 0-4 4-6 7-4 4-8 9-13 14l37 9z m47-123l0-36c-5 2-10 4-14 6-4 2-10 4-11 5-1 1-3 5-4 9-2 5-5 11-9 16z m-491-100c-3-2-4-5-4-9 0-1 1-2 2-3 1-2 4-4 6-4 2 0 4 1 5 2 3 2 70 50 86 64 3 2 5 4 8 7 11 10 17 15 27 10 0-1 0-2 0-4l0-100-12-6c-4-2-6-7-4-11 2-4 7-6 11-4l78 36c27 15 42 18 48 9 4-4 5-10 4-16-1-9-8-18-17-25-20-14-50-24-50-24l-2-1-1-1c-7-6-13-12-18-18-17-18-29-31-72-31l-91-5c-5 0-8-4-8-9 0-4 3-7 7-8-1 0-2 1-4 2 2-2 4-2 6-2l90 5c22 0 38 4 50 9 2-6 7-11 13-13 10-3 23-4 36 6 3-6 7-12 15-15 5-1 9-2 13-2 12 0 20 6 26 12 1 0 1 1 2 2 2-1 4-2 6-3 12-3 24 1 33 10 8 8 13 21 15 38l141 0 63 0 0 56 0 1 0 162-18 0-43 162-84-23-1 0-187-50-1 0-84-23 20-73c0-1 0-2 0-3l0 0 6-22c-10-2-18-9-25-16-2-2-4-4-7-6-15-14-84-63-84-63z m323-60c-22 0-41 14-51 35 0 7-2 14-7 21 0 4 0 7 0 11 0 38 26 68 58 68 33 0 59-30 59-68 0-37-26-67-59-67z m-129 53c-3 2-5 6-5 10 0 7 6 13 13 13 7 0 12-6 12-13l0 0c-7-3-14-7-19-10z m8 40c-17 0-30-14-30-30 0-6 2-13 6-18l-22-10 0 28 0 0 0 1 0 35c0 7 8 11 20 15 7 3 13 5 17 9 3 4 5 9 8 14 6 14 11 23 25 23l195 0c14 0 19-9 25-23 3-5 5-10 8-14 4-4 10-6 17-9 12-4 20-8 20-15l0-85c0-3-5-5-12-8-5-2-10-3-13-6-3-3-4-7-6-11-4-10-7-15-15-15l-225 0c9 4 19 12 27 18 8 6 15 13 19 21 14-19 34-30 57-30 42 0 76 38 76 84 0 47-34 85-76 85-41 0-75-38-75-84-6 1-11 1-17 0-3 14-15 25-29 25z m213 132c7 0 13-5 13-12 0-7-6-13-13-13-7 0-12 6-12 13 0 7 5 12 12 12z m0-42c17 0 30 13 30 30 0 16-13 29-30 29-16 0-29-13-29-29 0-17 13-30 29-30z m17-120c0 7 6 13 13 13 7 0 13-6 13-13 0-7-6-13-13-13-7 0-13 6-13 13z m42 0c0 16-13 30-29 30-16 0-29-14-29-30 0-16 13-29 29-29 16 0 29 13 29 29z"/>
</font>
</defs>
</svg>
